Index
# A B C D E F G H I J K L M N O P Q R S T U V W Y Z
Tags
Language
Tags

Featured TV Shows


Kung Fu S01E09

Posted By:
1080p (FullHD) / WEBRip IMDb
Kung Fu S01E09

Kung Fu S01E09
WEBRip | MKV | 1920x960 | English | H264 @ 7472 kbps | E-AC-3 @ 640 kbps | 41 min 3 s | 2.33 GiB
Subtitles: English
Genre: Drama


A quarter-life crisis causes a young Chinese-American woman to drop out of college and go on a life-changing journey to an isolated monastery in China. But when she returns to find her hometown overrun with crime and corruption, she uses her martial arts skills and Shaolin values to protect her community and bring criminals to justice…all while searching for the assassin who killed her Shaolin mentor and is now targeting her.

1396f9eb869b40259e0fb87f6ceb2341.mkv (2.3 GB)



General
Unique ID : 337594247420115034419507081393604137900 (0xFDFA4979E03523114499411D7EE813AC)
Complete name : ./1396f9eb869b40259e0fb87f6ceb2341.mkv
Format : Matroska
Format version : Version 4 / Version 2
File size : 2.33 GiB
Duration : 41 min 3 s
Overall bit rate : 8 114 kb/s
Encoded date : UTC 2021-06-24 04:03:21
Writing application : mkvmerge v57.0.0 ('Till The End') 64-bit
Writing library : libebml v1.4.2 + libmatroska v1.6.4

Video
ID : 1
Format : AVC
Format/Info : Advanced Video Codec
Format profile : High@L4
Format settings : CABAC / 4 Ref Frames
Format settings, CABAC : Yes
Format settings, RefFrames : 4 frames
Codec ID : V_MPEG4/ISO/AVC
Duration : 41 min 3 s
Bit rate mode : Constant
Bit rate : 7 472 kb/s
Nominal bit rate : 10 000 kb/s
Width : 1 920 pixels
Height : 960 pixels
Display aspect ratio : 2.000
Frame rate mode : Constant
Frame rate : 23.976 (24000/1001) FPS
Color space : YUV
Chroma subsampling : 4:2:0
Bit depth : 8 bits
Scan type : Progressive
Bits/(Pixel*Frame) : 0.169
Stream size : 2.14 GiB (92%)
Language : English
Default : Yes
Forced : No
Color range : Limited
Color primaries : BT.709
Transfer characteristics : BT.709
Matrix coefficients : BT.709

Audio
ID : 2
Format : E-AC-3
Format/Info : Enhanced Audio Coding 3
Format settings, Endianness : Big
Codec ID : A_EAC3
Duration : 41 min 3 s
Bit rate mode : Constant
Bit rate : 640 kb/s
Channel(s) : 6 channels
Channel positions : Front: L C R, Side: L R, LFE
Sampling rate : 48.0 kHz
Frame rate : 187.500 FPS (256 SPF)
Compression mode : Lossy
Stream size : 188 MiB (8%)
Language : English
Service kind : Complete Main
Default : Yes
Forced : No

Text
ID : 3
Format : UTF-8
Codec ID : S_TEXT/UTF8
Codec ID/Info : UTF-8 Plain Text
Duration : 40 min 56 s
Bit rate : 68 b/s
Count of elements : 762
Stream size : 20.5 KiB (0%)
Title : English
Language : English
Default : No
Forced : No





Kung Fu S01E09


Kung Fu S01E09


Kung Fu S01E09


Kung Fu S01E09


Kung Fu S01E09

All episodes