Index
# A B C D E F G H I J K L M N O P Q R S T U V W Y Z
Tags
Language
Tags

Featured TV Shows


Kung Fu S01E13

Posted By: Tavaz
1080p (FullHD) / BluRay Remux IMDb
Kung Fu S01E13

Kung Fu S01E13
BluRay Remux | MKV | 1920x1080 | English | H264 @ 25808 kbps | DTS | 42 min 28 s | 8.32 GiB
Subtitles: English
Genre: Drama


A quarter-life crisis causes a young Chinese-American woman to drop out of college and go on a life-changing journey to an isolated monastery in China. But when she returns to find her hometown overrun with crime and corruption, she uses her martial arts skills and Shaolin values to protect her community and bring criminals to justice…all while searching for the assassin who killed her Shaolin mentor and is now targeting her.

Kung.Fu.2021.S01E13.Transformation.1080p.Blu-ray.Remux.AVC.DTS-HD.MA.5.1-SiCFoI.part1.rar (4.4 GB)
Kung.Fu.2021.S01E13.Transformation.1080p.Blu-ray.Remux.AVC.DTS-HD.MA.5.1-SiCFoI.part2.rar (4.0 GB)



General
Unique ID : 16505775778234843872486317199136460977 (0xC6AE5938C7739A8FC1D1FA0BE3110B1)
Complete name : ./Kung.Fu.2021.S01E13.Transformation.1080p.Blu-ray.Remux.AVC.DTS-HD.MA.5.1-SiCFoI.mkv
Format : Matroska
Format version : Version 4 / Version 2
File size : 8.32 GiB
Duration : 42 min 28 s
Overall bit rate mode : Variable
Overall bit rate : 28.0 Mb/s
Movie name : Kung.Fu.2021.S01E13.Transformation.1080p.Blu-ray.Remux.AVC.DTS-HD.MA.5.1-SiCFoI
Encoded date : UTC 2021-11-08 19:17:46
Writing application : mkvmerge v51.0.0 ('I Wish') 64-bit
Writing library : libebml v1.4.0 + libmatroska v1.6.2

Video
ID : 1
ID in the original source medium : 4113 (0x1011)
Format : AVC
Format/Info : Advanced Video Codec
Format profile : High@L4.1
Format settings : CABAC / 4 Ref Frames
Format settings, CABAC : Yes
Format settings, RefFrames : 4 frames
Codec ID : V_MPEG4/ISO/AVC
Duration : 42 min 28 s
Bit rate mode : Variable
Bit rate : 25.8 Mb/s
Maximum bit rate : 38.0 Mb/s
Width : 1 920 pixels
Height : 1 080 pixels
Display aspect ratio : 16:9
Frame rate mode : Constant
Frame rate : 23.976 (24000/1001) FPS
Color space : YUV
Chroma subsampling : 4:2:0
Bit depth : 8 bits
Scan type : Progressive
Bits/(Pixel*Frame) : 0.519
Stream size : 7.66 GiB (92%)
Title : Kung.Fu.2021.S01E13.Transformation.1080p.Blu-ray.Remux.AVC.DTS-HD.MA.5.1-SiCFoI
Default : Yes
Forced : No
Original source medium : Blu-ray

Audio
ID : 2
ID in the original source medium : 4352 (0x1100)
Format : DTS
Format/Info : Digital Theater Systems
Format profile : MA / Core
Mode : 16
Format settings, Endianness : Big
Codec ID : A_DTS
Duration : 42 min 28 s
Bit rate mode : Variable / Constant
Bit rate : 2 221 kb/s / 1 509 kb/s
Channel(s) : 6 channels
Channel positions : Front: L C R, Side: L R, LFE
Sampling rate : 48.0 kHz
Frame rate : 93.750 FPS (512 SPF)
Bit depth : 16 bits
Compression mode : Lossless / Lossy
Stream size : 675 MiB (8%)
Title : DTS-HD MA 5.1
Language : English
Default : Yes
Forced : No
Original source medium : Blu-ray

Text
ID : 3
ID in the original source medium : 4608 (0x1200)
Format : PGS
Muxing mode : zlib
Codec ID : S_HDMV/PGS
Codec ID/Info : Picture based subtitle format used on BDs/HD-DVDs
Duration : 41 min 57 s
Bit rate : 39.8 kb/s
Count of elements : 1340
Stream size : 11.9 MiB (0%)
Title : English (SDH)
Language : English
Default : Yes
Forced : No
Original source medium : Blu-ray

Menu
00:00:00.000 : en:Chapter 01
00:06:09.410 : en:Chapter 02
00:15:07.114 : en:Chapter 03
00:21:00.801 : en:Chapter 04
00:30:32.789 : en:Chapter 05
00:35:53.151 : en:Chapter 06
00:41:59.600 : en:Chapter 07





Kung Fu S01E13


Kung Fu S01E13


Kung Fu S01E13


Kung Fu S01E13


Kung Fu S01E13

All episodes