Please register here if you want to download anything!

If domain in your address bar is different from the list below
PLEASE LEAVE THAT SITE IMMEDIATELY
❗IT'S A DANGEROUS FAKE❗



Spicy Magazines for Men! ;-)

Featured TV Shows


L.A.'s Finest S01E10

Posted By: Tavaz
1080p (FullHD) / HDTV IMDb
L.A.'s Finest S01E10

L.A.'s Finest S01E10
HDTV | TS | 1920x1080 | English | MPV @ 10770 kbps | AC-3 @ 384 kbps | 50 min 53 s | 4.17 GiB
Genre: Crime, Drama


Syd Burnett has left her complicated past behind to become an LAPD detective. Paired with a new partner, Nancy McKenna, a working mom with an equally complex past, Syd is pushed to examine whether her unapologetic lifestyle might be masking a greater personal secret. These two women don't agree on much, but they find common ground when it comes to taking on the most dangerous criminals in Los Angeles.

2e452a012b354965a27e12a152a4fe25.ts (4.2 GB)



General
ID : 1 (0x1)
Complete name : ./2e452a012b354965a27e12a152a4fe25.ts
Format : MPEG-TS
File size : 4.17 GiB
Duration : 50 min 53 s
Overall bit rate mode : Variable
Overall bit rate : 11.7 Mb/s

Video
ID : 17 (0x11)
Menu ID : 1 (0x1)
Format : MPEG Video
Format version : Version 2
Format profile : Main@High
Format settings : CustomMatrix / BVOP
Format settings, BVOP : Yes
Format settings, Matrix : Custom
Format settings, GOP : Variable
Format settings, picture structure : Frame
Codec ID : 2
Duration : 50 min 53 s
Bit rate mode : Constant
Bit rate : 10.8 Mb/s
Maximum bit rate : 11.0 Mb/s
Width : 1 920 pixels
Height : 1 080 pixels
Display aspect ratio : 16:9
Frame rate : 29.970 (30000/1001) FPS
Color space : YUV
Chroma subsampling : 4:2:0
Bit depth : 8 bits
Scan type : Interlaced
Scan order : Top Field First
Compression mode : Lossy
Bits/(Pixel*Frame) : 0.173
Time code of first frame : 00:00:00;00
Time code source : Group of pictures header
Stream size : 3.83 GiB (92%)

Audio
ID : 20 (0x14)
Menu ID : 1 (0x1)
Format : AC-3
Format/Info : Audio Coding 3
Format settings, Endianness : Big
Codec ID : 129
Duration : 50 min 53 s
Bit rate mode : Constant
Bit rate : 384 kb/s
Channel(s) : 6 channels
Channel positions : Front: L C R, Side: L R, LFE
Sampling rate : 48.0 kHz
Frame rate : 31.250 FPS (1536 SPF)
Bit depth : 16 bits
Compression mode : Lossy
Delay relative to video : 26 ms
Stream size : 140 MiB (3%)
Language : English
Service kind : Complete Main

Text #1
ID : 17 (0x11)-CC1
Menu ID : 1 (0x1)
Format : EIA-608
Muxing mode : A/53 / DTVCC Transport
Muxing mode, more info : Muxed in Video #1
Duration : 50 min 53 s
Bit rate mode : Constant
Stream size : 0.00 Byte (0%)
CaptionServiceName : CC1

Text #2
ID : 17 (0x11)-CC3
Menu ID : 1 (0x1)
Format : EIA-608
Muxing mode : A/53 / DTVCC Transport
Muxing mode, more info : Muxed in Video #1
Duration : 50 min 53 s
Bit rate mode : Constant
Stream size : 0.00 Byte (0%)
CaptionServiceName : CC3

Text #3
ID : 17 (0x11)-1
Menu ID : 1 (0x1)
Format : EIA-708
Muxing mode : A/53 / DTVCC Transport
Muxing mode, more info : Muxed in Video #1
Duration : 50 min 53 s
Bit rate mode : Constant
Stream size : 0.00 Byte (0%)

Text #4
ID : 17 (0x11)-2
Menu ID : 1 (0x1)
Format : EIA-708
Muxing mode : A/53 / DTVCC Transport
Muxing mode, more info : Muxed in Video #1
Duration : 50 min 53 s
Bit rate mode : Constant
Stream size : 0.00 Byte (0%)

Text #5
ID : 17 (0x11)-3
Menu ID : 1 (0x1)
Format : EIA-708
Muxing mode : A/53 / DTVCC Transport
Muxing mode, more info : Muxed in Video #1
Duration : 50 min 53 s
Bit rate mode : Constant
Stream size : 0.00 Byte (0%)

Text #6
ID : 17 (0x11)-4
Menu ID : 1 (0x1)
Format : EIA-708
Muxing mode : A/53 / DTVCC Transport
Muxing mode, more info : Muxed in Video #1
Duration : 50 min 53 s
Bit rate mode : Constant
Stream size : 0.00 Byte (0%)

Text #7
ID : 17 (0x11)-5
Menu ID : 1 (0x1)
Format : EIA-708
Muxing mode : A/53 / DTVCC Transport
Muxing mode, more info : Muxed in Video #1
Duration : 50 min 53 s
Bit rate mode : Constant
Stream size : 0.00 Byte (0%)

Text #8
ID : 17 (0x11)-6
Menu ID : 1 (0x1)
Format : EIA-708
Muxing mode : A/53 / DTVCC Transport
Muxing mode, more info : Muxed in Video #1
Duration : 50 min 53 s
Bit rate mode : Constant
Stream size : 0.00 Byte (0%)





L.A.'s Finest S01E10


L.A.'s Finest S01E10


L.A.'s Finest S01E10


L.A.'s Finest S01E10


L.A.'s Finest S01E10

All episodes