Featured TV Shows


Vida S01E04

Posted By: Tavaz
1080p (FullHD) / WEB-DL IMDb
Vida S01E04

Vida S01E04
WEB-DL | MKV | 1920x1080 | Portuguese | H264 @ 9999 kbps | E-AC-3 @ 640 kbps | 1 h 5 min | 4.70 GiB
Genre: Drama


Two Mexican-American sisters from the Eastside of Los Angeles who couldn't be more different or distanced from each other are forced to return to their old neighborhood, where they are confronted by the past and surprising truth about their mother’s identity.

8ac6eb0f79e945968e2afde51c671cf1.mkv (4.7 GB)



General
Unique ID : 47367338935718188991433839847780422672 (0x23A29E1DEE8E3FE23E01254ADFF89410)
Complete name : ./8ac6eb0f79e945968e2afde51c671cf1.mkv
Format : Matroska
Format version : Version 4 / Version 2
File size : 4.70 GiB
Duration : 1 h 5 min
Overall bit rate mode : Constant
Overall bit rate : 10.3 Mb/s
Encoded date : UTC 2019-06-11 14:27:44
Writing application : mkvmerge v30.1.0 ('Forever And More') 64-bit
Writing library : libebml v1.3.6 + libmatroska v1.4.9

Video
ID : 1
Format : AVC
Format/Info : Advanced Video Codec
Format profile : High@L4
Format settings : CABAC / 4 Ref Frames
Format settings, CABAC : Yes
Format settings, RefFrames : 4 frames
Format settings, GOP : M=4, N=48
Codec ID : V_MPEG4/ISO/AVC
Duration : 1 h 5 min
Bit rate mode : Constant
Bit rate : 10 000 kb/s
Width : 1 920 pixels
Height : 1 080 pixels
Display aspect ratio : 16:9
Frame rate mode : Constant
Frame rate : 23.976 (24000/1001) FPS
Color space : YUV
Chroma subsampling : 4:2:0
Bit depth : 8 bits
Scan type : Progressive
Bits/(Pixel*Frame) : 0.201
Stream size : 4.41 GiB (94%)
Language : English
Default : Yes
Forced : No
Color range : Limited
Color primaries : BT.709
Transfer characteristics : BT.709
Matrix coefficients : BT.709

Audio
ID : 2
Format : E-AC-3
Format/Info : Enhanced Audio Coding 3
Format settings, Endianness : Big
Codec ID : A_EAC3
Duration : 1 h 5 min
Bit rate mode : Constant
Bit rate : 640 kb/s
Channel(s) : 6 channels
Channel positions : Front: L C R, Side: L R, LFE
Sampling rate : 48.0 kHz
Frame rate : 187.500 FPS (256 SPF)
Compression mode : Lossy
Stream size : 299 MiB (6%)
Language : Portuguese
Service kind : Complete Main
Default : Yes
Forced : No





Vida S01E04


Vida S01E04


Vida S01E04


Vida S01E04


Vida S01E04

All episodes