Featured TV Shows


Vida S01E10

Posted By: Tavaz
720p (HD) / WEB-DL IMDb
Vida S01E10

Vida S01E10
WEB-DL | MKV | 1280x720 | Portuguese | H264 @ 1769 kbps | E-AC-3 @ 640 kbps | 58 min 47 s | 1 014 MiB
Genre: Drama


Two Mexican-American sisters from the Eastside of Los Angeles who couldn't be more different or distanced from each other are forced to return to their old neighborhood, where they are confronted by the past and surprising truth about their mother’s identity.

3daa1d3da7ae4161b119eaf76c15ff8c.mkv (1013.9 MB)



General
Unique ID : 292177592226242072420644042482254034094 (0xDBCF5B7E38E3A786FC3B33E3EE1334AE)
Complete name : ./3daa1d3da7ae4161b119eaf76c15ff8c.mkv
Format : Matroska
Format version : Version 4 / Version 2
File size : 1 014 MiB
Duration : 58 min 47 s
Overall bit rate mode : Constant
Overall bit rate : 2 412 kb/s
Encoded date : UTC 2019-06-11 15:14:18
Writing application : mkvmerge v30.1.0 ('Forever And More') 64-bit
Writing library : libebml v1.3.6 + libmatroska v1.4.9

Video
ID : 1
Format : AVC
Format/Info : Advanced Video Codec
Format profile : High@L3.1
Format settings : CABAC / 4 Ref Frames
Format settings, CABAC : Yes
Format settings, RefFrames : 4 frames
Codec ID : V_MPEG4/ISO/AVC
Duration : 58 min 47 s
Bit rate mode : Constant
Bit rate : 1 770 kb/s
Nominal bit rate : 6 000 kb/s
Width : 1 280 pixels
Height : 720 pixels
Display aspect ratio : 16:9
Frame rate mode : Constant
Frame rate : 23.976 (24000/1001) FPS
Color space : YUV
Chroma subsampling : 4:2:0
Bit depth : 8 bits
Scan type : Progressive
Bits/(Pixel*Frame) : 0.080
Stream size : 744 MiB (73%)
Default : Yes
Forced : No
Color range : Limited
Color primaries : BT.709
Transfer characteristics : BT.709
Matrix coefficients : BT.709

Audio
ID : 2
Format : E-AC-3
Format/Info : Enhanced Audio Coding 3
Format settings, Endianness : Big
Codec ID : A_EAC3
Duration : 58 min 46 s
Bit rate mode : Constant
Bit rate : 640 kb/s
Channel(s) : 6 channels
Channel positions : Front: L C R, Side: L R, LFE
Sampling rate : 48.0 kHz
Frame rate : 187.500 FPS (256 SPF)
Compression mode : Lossy
Stream size : 269 MiB (27%)
Language : Portuguese
Service kind : Complete Main
Default : Yes
Forced : No





Vida S01E10


Vida S01E10


Vida S01E10


Vida S01E10


Vida S01E10

All episodes