Index
# A B C D E F G H I J K L M N O P Q R S T U V W Y Z
Tags
Language
Tags
November 2022
Su Mo Tu We Th Fr Sa
30 31 1 2 3 4 5
6 7 8 9 10 11 12
13 14 15 16 17 18 19
20 21 22 23 24 25 26
27 28 29 30 1 2 3

Featured TV Shows


Law & Order: Organized Crime S02E07

Posted By: Tavaz
720p (HD) / WEBRip IMDb
Law & Order: Organized Crime S02E07

Law & Order: Organized Crime S02E07
WEB-DL | MKV | 1280x720 | English / Deutsch | H264 | AAC @ 127 kbps | 40 min 26 s | 1 018 MiB
Genre: Krimi, Drama


Die Spin-Off-Serie „Law & Order: Organized Crime“ lässt den früheren SVU-Beamten Elliot Stabler (Christopher Meloni) nach einem Jahrzehnt wieder in den USA ermitteln: Detective Stabler kehrt nach einem mehrjährigen Auslandsaufenthalt in Italien nach New York zurück. Nach einem dramatischen Schicksalsschlag schließt er sich einer neuen Spezialeinheit des NYPD an, die dem organisierten Verbrechen in der Ostküsten-Metropole den Kampf ansagt. Geleitet wird diese von Sergeant Ayanna Bell (Danielle Moné Truitt), die nach und nach ein Team um sich herum versammelt. Zeitgleich sorgt sich Bell um ihren neuen Partner Stabler, der auf einem schmalen Grat zwischen Ermittlung und Rache zu wandeln scheint.

Law.And.Order.Organized.Crime.S02E07.German.DL.720p.WEB.h264-OHD.mkv (1018.1 MB)



General
Unique ID : 323650337404556314073251633158253135944 (0xF37CC9A23D9EFA1E9F68B71E0B274848)
Complete name : ./Law.And.Order.Organized.Crime.S02E07.German.DL.720p.WEB.h264-OHD.mkv
Format : Matroska
Format version : Version 4 / Version 2
File size : 1 018 MiB
Duration : 40 min 26 s
Overall bit rate : 3 519 kb/s
Encoded date : UTC 2022-03-17 08:15:44
Writing application : mkvmerge v66.0.0 ('Josie') 64-bit
Writing library : libebml v1.4.2 + libmatroska v1.6.4

Video
ID : 1
Format : AVC
Format/Info : Advanced Video Codec
Format profile : Main@L3.2
Format settings : CABAC / 4 Ref Frames
Format settings, CABAC : Yes
Format settings, RefFrames : 4 frames
Codec ID : V_MPEG4/ISO/AVC
Duration : 40 min 26 s
Bit rate mode : Constant
Bit rate : 3 400 kb/s / 3 400 kb/s
Width : 1 280 pixels
Height : 720 pixels
Display aspect ratio : 16:9
Frame rate mode : Constant
Frame rate : 25.000 FPS
Color space : YUV
Chroma subsampling : 4:2:0
Bit depth : 8 bits
Scan type : Progressive
Bits/(Pixel*Frame) : 0.148
Stream size : 943 MiB (93%)
Writing library : x264 core 148
Encoding settings : cabac=1 / ref=4 / deblock=1:-1:-1 / analyse=0x1:0x111 / me=hex / subme=7 / psy=1 / psy_rd=1.00:0.15 / mixed_ref=1 / me_range=16 / chroma_me=1 / trellis=1 / 8x8dct=0 / cqm=0 / deadzone=21,11 / fast_pskip=1 / chroma_qp_offset=-3 / threads=12 / lookahead_threads=2 / sliced_threads=0 / nr=0 / decimate=1 / interlaced=0 / paff=0 / bluray_compat=0 / constrained_intra=0 / bframes=3 / b_pyramid=2 / b_adapt=1 / b_bias=0 / direct=1 / weightb=1 / open_gop=0 / weightp=2 / keyint=48 / keyint_min=4 / scenecut=0 / intra_refresh=0 / rc_lookahead=40 / rc=cbr / mbtree=1 / bitrate=3400 / ratetol=1.0 / qcomp=0.60 / qpmin=0 / qpmax=69 / qpstep=4 / vbv_maxrate=3400 / vbv_bufsize=6800 / nal_hrd=cbr / filler=1 / ip_ratio=1.40 / aq=1:1.00
Language : German
Default : Yes
Forced : No
Color range : Limited
Color primaries : BT.709
Transfer characteristics : BT.709
Matrix coefficients : BT.709

Audio #1
ID : 2
Format : AAC
Format/Info : Advanced Audio Codec
Format profile : LC
Codec ID : A_AAC-2
Duration : 40 min 26 s
Bit rate : 128 kb/s
Channel(s) : 2 channels
Channel positions : Front: L R
Sampling rate : 48.0 kHz
Frame rate : 46.875 FPS (1024 SPF)
Compression mode : Lossy
Stream size : 37.0 MiB (4%)
Language : German
Default : Yes
Forced : No

Audio #2
ID : 3
Format : AAC
Format/Info : Advanced Audio Codec
Format profile : LC
Codec ID : A_AAC-2
Duration : 40 min 26 s
Bit rate : 128 kb/s
Channel(s) : 2 channels
Channel positions : Front: L R
Sampling rate : 48.0 kHz
Frame rate : 46.875 FPS (1024 SPF)
Compression mode : Lossy
Stream size : 37.0 MiB (4%)
Language : English
Default : Yes
Forced : No





Law & Order: Organized Crime S02E07


Law & Order: Organized Crime S02E07


Law & Order: Organized Crime S02E07


Law & Order: Organized Crime S02E07


Law & Order: Organized Crime S02E07

All episodes