Index
# A B C D E F G H I J K L M N O P Q R S T U V W Y Z
Tags
Language
Tags
November 2022
Su Mo Tu We Th Fr Sa
30 31 1 2 3 4 5
6 7 8 9 10 11 12
13 14 15 16 17 18 19
20 21 22 23 24 25 26
27 28 29 30 1 2 3

Featured TV Shows


Law & Order: Organized Crime S02E17

Posted By: Tavaz
720p (HD) / WEBRip IMDb
Law & Order: Organized Crime S02E17

Law & Order: Organized Crime S02E17
WEBRip | MKV | 1280x720 | English | H264 @ 4327 kbps | E-AC-3 @ 640 kbps | 41 min 37 s | 1.45 GiB
Subtitles: English
Genre: Crime, Drama


Detective Elliot Stabler returns to the NYPD to battle organized crime after a devastating personal loss. Stabler journeys to find absolution and rebuild his life, while leading a new elite task force that is taking apart the city’s most powerful criminal syndicates one by one.

7130e1811dfe4c94a71959a2903c3842.mkv (1.4 GB)



General
Unique ID : 278320031338685377387636809607287741347 (0xD1627CFDCEBFA129D128807182BD1BA3)
Complete name : ./7130e1811dfe4c94a71959a2903c3842.mkv
Format : Matroska
Format version : Version 4 / Version 2
File size : 1.45 GiB
Duration : 41 min 37 s
Overall bit rate : 4 969 kb/s
Encoded date : UTC 2022-04-08 04:10:47
Writing application : mkvmerge v66.0.0 ('Josie') 64-bit
Writing library : libebml v1.4.2 + libmatroska v1.6.4

Video
ID : 1
Format : AVC
Format/Info : Advanced Video Codec
Format profile : High@L3.1
Format settings : CABAC / 4 Ref Frames
Format settings, CABAC : Yes
Format settings, RefFrames : 4 frames
Codec ID : V_MPEG4/ISO/AVC
Duration : 41 min 37 s
Bit rate mode : Constant
Bit rate : 4 327 kb/s
Nominal bit rate : 6 000 kb/s
Width : 1 280 pixels
Height : 720 pixels
Display aspect ratio : 16:9
Frame rate mode : Constant
Frame rate : 23.976 (24000/1001) FPS
Color space : YUV
Chroma subsampling : 4:2:0
Bit depth : 8 bits
Scan type : Progressive
Bits/(Pixel*Frame) : 0.196
Stream size : 1.26 GiB (87%)
Language : English
Default : Yes
Forced : No
Color range : Limited
Color primaries : BT.709
Transfer characteristics : BT.709
Matrix coefficients : BT.709

Audio
ID : 2
Format : E-AC-3
Format/Info : Enhanced Audio Coding 3
Format settings, Endianness : Big
Codec ID : A_EAC3
Duration : 41 min 37 s
Bit rate mode : Constant
Bit rate : 640 kb/s
Channel(s) : 6 channels
Channel positions : Front: L C R, Side: L R, LFE
Sampling rate : 48.0 kHz
Frame rate : 187.500 FPS (256 SPF)
Compression mode : Lossy
Stream size : 191 MiB (13%)
Language : English
Service kind : Complete Main
Default : Yes
Forced : No

Text
ID : 3
Format : UTF-8
Codec ID : S_TEXT/UTF8
Codec ID/Info : UTF-8 Plain Text
Duration : 41 min 29 s
Bit rate : 89 b/s
Count of elements : 908
Stream size : 27.2 KiB (0%)
Title : English
Language : English
Default : No
Forced : No





Law & Order: Organized Crime S02E17


Law & Order: Organized Crime S02E17


Law & Order: Organized Crime S02E17


Law & Order: Organized Crime S02E17


Law & Order: Organized Crime S02E17

All episodes