Index
# A B C D E F G H I J K L M N O P Q R S T U V W Y Z
Tags
Language
Tags

Featured TV Shows


Legacies S04E20

Posted By: Tavaz
1080p (FullHD) / WEBRip IMDb
Legacies S04E20

Legacies S04E20
WEBRip | MKV | 1920x1080 | English | H264 @ 7514 kbps | E-AC-3 @ 640 kbps | 42 min 21 s | 2.41 GiB
Subtitles: English
Genre: Drama


In a place where young witches, vampires, and werewolves are nurtured to be their best selves in spite of their worst impulses, Klaus Mikaelson’s daughter, 17-year-old Hope Mikaelson, Alaric Saltzman’s twins, Lizzie and Josie Saltzman, among others, come of age into heroes and villains at The Salvatore School for the Young and Gifted.

fb5ef12a572643ca97ae436b451b08e2.mkv (2.4 GB)



General
Unique ID : 219903385436390296733934919444989670671 (0xA56FD9FB24EDDEE4104F27767C8AF50F)
Complete name : ./fb5ef12a572643ca97ae436b451b08e2.mkv
Format : Matroska
Format version : Version 4 / Version 2
File size : 2.41 GiB
Duration : 42 min 21 s
Overall bit rate : 8 157 kb/s
Writing application : mkvmerge v68.0.0 ('The Curtain') 64-bit
Writing library : libebml v1.4.2 + libmatroska v1.6.4

Video
ID : 1
Format : AVC
Format/Info : Advanced Video Codec
Format profile : High@L4
Format settings : CABAC / 4 Ref Frames
Format settings, CABAC : Yes
Format settings, RefFrames : 4 frames
Codec ID : V_MPEG4/ISO/AVC
Duration : 42 min 21 s
Bit rate mode : Constant
Bit rate : 7 514 kb/s
Nominal bit rate : 10 000 kb/s
Width : 1 920 pixels
Height : 1 080 pixels
Display aspect ratio : 16:9
Frame rate mode : Constant
Frame rate : 23.976 (24000/1001) FPS
Color space : YUV
Chroma subsampling : 4:2:0
Bit depth : 8 bits
Scan type : Progressive
Bits/(Pixel*Frame) : 0.151
Stream size : 2.22 GiB (92%)
Default : Yes
Forced : No
Color range : Limited
Color primaries : BT.709
Transfer characteristics : BT.709
Matrix coefficients : BT.709

Audio
ID : 2
Format : E-AC-3
Format/Info : Enhanced Audio Coding 3
Format settings, Endianness : Big
Codec ID : A_EAC3
Duration : 42 min 21 s
Bit rate mode : Constant
Bit rate : 640 kb/s
Channel(s) : 6 channels
Channel positions : Front: L C R, Side: L R, LFE
Sampling rate : 48.0 kHz
Frame rate : 187.500 FPS (256 SPF)
Compression mode : Lossy
Stream size : 194 MiB (8%)
Language : English
Service kind : Complete Main
Default : Yes
Forced : No

Text #1
ID : 3
Format : UTF-8
Codec ID : S_TEXT/UTF8
Codec ID/Info : UTF-8 Plain Text
Duration : 41 min 2 s
Bit rate : 71 b/s
Count of elements : 689
Stream size : 21.6 KiB (0%)
Language : English
Default : No
Forced : No

Text #2
ID : 4
Format : UTF-8
Codec ID : S_TEXT/UTF8
Codec ID/Info : UTF-8 Plain Text
Duration : 41 min 44 s
Bit rate : 77 b/s
Count of elements : 780
Stream size : 23.8 KiB (0%)
Title : SDH
Language : English
Default : No
Forced : No

Menu
00:00:00.000 : en:Begin
00:41:49.000 : en:Credits





Legacies S04E20


Legacies S04E20


Legacies S04E20


Legacies S04E20


Legacies S04E20

All episodes