Index
# A B C D E F G H I J K L M N O P Q R S T U V W Y Z
Tags
Language
Tags

Featured TV Shows


DC's Legends of Tomorrow S03E13

Posted By: Tavaz
720p (HD) / WEB-DL IMDb
DC's Legends of Tomorrow S03E13

DC's Legends of Tomorrow S03E13
WEB-DL | MKV | 1280x720 | English | H264 @ 3199 kbps | E-AC-3 @ 640 kbps | 42 min 21 s | 1.14 GiB
Subtitles: English
Genre: Drama


When heroes alone are not enough … the world needs legends. Having seen the future, one he will desperately try to prevent from happening, time-traveling rogue Rip Hunter is tasked with assembling a disparate group of both heroes and villains to confront an unstoppable threat — one in which not only is the planet at stake, but all of time itself. Can this ragtag team defeat an immortal threat unlike anything they have ever known?

aadd618288e34416a3a992a49884e610.mkv (1.1 GB)



General
Unique ID : 219343758574951294187350063250619847150 (0xA504123F1AAFA0D19B540325AEE951EE)
Complete name : ./aadd618288e34416a3a992a49884e610.mkv
Format : Matroska
Format version : Version 4 / Version 2
File size : 1.14 GiB
Duration : 42 min 21 s
Overall bit rate mode : Variable
Overall bit rate : 3 842 kb/s
Encoded date : UTC 2018-03-06 13:00:20
Writing application : mkvmerge v13.0.0 ('The Juggler') 64bit
Writing library : libebml v1.3.4 + libmatroska v1.4.5

Video
ID : 1
Format : AVC
Format/Info : Advanced Video Codec
Format profile : High@L3.1
Format settings : CABAC / 5 Ref Frames
Format settings, CABAC : Yes
Format settings, RefFrames : 5 frames
Codec ID : V_MPEG4/ISO/AVC
Duration : 42 min 21 s
Bit rate mode : Variable
Bit rate : 3 200 kb/s
Maximum bit rate : 4 500 kb/s
Width : 1 280 pixels
Height : 720 pixels
Display aspect ratio : 16:9
Frame rate mode : Constant
Frame rate : 23.976 (24000/1001) FPS
Color space : YUV
Chroma subsampling : 4:2:0
Bit depth : 8 bits
Scan type : Progressive
Bits/(Pixel*Frame) : 0.145
Stream size : 970 MiB (83%)
Default : Yes
Forced : No
Color range : Limited
Color primaries : BT.709
Transfer characteristics : BT.709
Matrix coefficients : BT.709

Audio
ID : 2
Format : E-AC-3
Format/Info : Enhanced Audio Coding 3
Format settings, Endianness : Big
Codec ID : A_EAC3
Duration : 42 min 21 s
Bit rate mode : Constant
Bit rate : 640 kb/s
Channel(s) : 6 channels
Channel positions : Front: L C R, Side: L R, LFE
Sampling rate : 48.0 kHz
Frame rate : 187.500 FPS (256 SPF)
Compression mode : Lossy
Stream size : 194 MiB (17%)
Language : English
Service kind : Complete Main
Default : Yes
Forced : No

Text #1
ID : 3
Format : UTF-8
Codec ID : S_TEXT/UTF8
Codec ID/Info : UTF-8 Plain Text
Duration : 42 min 14 s
Bit rate : 85 b/s
Count of elements : 919
Stream size : 26.5 KiB (0%)
Language : English
Default : No
Forced : No

Text #2
ID : 4
Format : UTF-8
Codec ID : S_TEXT/UTF8
Codec ID/Info : UTF-8 Plain Text
Duration : 42 min 14 s
Bit rate : 97 b/s
Count of elements : 1063
Stream size : 30.1 KiB (0%)
Title : SDH
Language : English
Default : No
Forced : No





DC's Legends of Tomorrow S03E13


DC's Legends of Tomorrow S03E13


DC's Legends of Tomorrow S03E13


DC's Legends of Tomorrow S03E13


DC's Legends of Tomorrow S03E13

All episodes