Index
# A B C D E F G H I J K L M N O P Q R S T U V W Y Z
Tags
Language
Tags

Featured TV Shows


DC's Legends of Tomorrow S05E12

Posted By: Tavaz
1080p (FullHD) / WEBRip IMDb
DC's Legends of Tomorrow S05E12

DC's Legends of Tomorrow S05E12
WEBRip | MKV | 1920x1080 | English | H265 @ 3393 kbps | E-AC-3 @ 640 kbps | 42 min 22 s | 1.19 GiB
Genre: Drama


When heroes alone are not enough … the world needs legends. Having seen the future, one he will desperately try to prevent from happening, time-traveling rogue Rip Hunter is tasked with assembling a disparate group of both heroes and villains to confront an unstoppable threat — one in which not only is the planet at stake, but all of time itself. Can this ragtag team defeat an immortal threat unlike anything they have ever known?

be01ee247a186cea9c0222fe9dc48489.mkv (1.2 GB)



General
Unique ID : 204535703260610522227385157459223907654 (0x99E024C0630C1C968ACE9671858E0D46)
Complete name : ./be01ee247a186cea9c0222fe9dc48489.mkv
Format : Matroska
Format version : Version 2
File size : 1.19 GiB
Duration : 42 min 22 s
Overall bit rate : 4 035 kb/s
Movie name : Legends.of.Tomorrow.S05E12.Freaks.and.Greeks.WEBRip.10Bit.1080p.DD+5.1.H265-d3g
Encoded date : UTC 2020-06-05 23:02:34
Writing application : DVDFab 10.0.9.2
Writing library : libebml v1.3.4 + libmatroska v1.4.5

Video
ID : 1
Format : HEVC
Format/Info : High Efficiency Video Coding
Format profile : Main 10@L4@Main
Codec ID : V_MPEGH/ISO/HEVC
Duration : 42 min 21 s
Bit rate : 3 394 kb/s
Width : 1 920 pixels
Height : 1 080 pixels
Display aspect ratio : 16:9
Frame rate mode : Constant
Frame rate : 23.976 (24000/1001) FPS
Color space : YUV
Chroma subsampling : 4:2:0
Bit depth : 10 bits
Bits/(Pixel*Frame) : 0.068
Stream size : 1.00 GiB (84%)
Default : Yes
Forced : No
Color range : Limited
Color primaries : BT.709
Transfer characteristics : BT.709
Matrix coefficients : BT.709

Audio
ID : 2
Format : E-AC-3
Format/Info : Enhanced Audio Coding 3
Format settings, Endianness : Big
Codec ID : A_EAC3
Duration : 42 min 22 s
Bit rate mode : Constant
Bit rate : 640 kb/s
Channel(s) : 6 channels
Channel positions : Front: L C R, Side: L R, LFE
Sampling rate : 48.0 kHz
Frame rate : 187.500 FPS (256 SPF)
Compression mode : Lossy
Stream size : 194 MiB (16%)
Language : English
Service kind : Complete Main
Default : Yes
Forced : No





DC's Legends of Tomorrow S05E12


DC's Legends of Tomorrow S05E12


DC's Legends of Tomorrow S05E12


DC's Legends of Tomorrow S05E12


DC's Legends of Tomorrow S05E12

All episodes