Index
# A B C D E F G H I J K L M N O P Q R S T U V W Y Z
Tags
Language
Tags

Featured TV Shows


Legends of Tomorrow S06E01

Posted By: Tavaz
1080p (FullHD) / WEB-DL IMDb
Legends of Tomorrow S06E01

Legends of Tomorrow S06E01
WEB-DL | MOV | 1920x1080 | English | H264 @ 3728 kbps | AC-3 @ 256 kbps | 53 min 47 s | 1.50 GiB
Genre: Drama


Die Superhelden-Serie Legends of Tomorrow ist im gleichen Universum wie Arrow und The Flash angesiedelt. Seit der Ankunft des grünen Bogenschützen und des roten Flitzers hat sich die Welt allerdings gewaltig verändert. Helden alleine reichen nicht mehr, um die Menschen von Star City und Central City zu beschützen. Eine finstere Macht erhebt sich am Horizont - und um diese zu besiegen, benötigt es mindestens eine Handvoll lebender Legenden. Nachdem der Zeitreisende Rip Hunter eine düstere Vision der Zukunft gesehen hat, bleibt ihm keine andere Wahl, als ein Team zusammenzutrommeln, das sowohl aus Helden als auch aus ihren Bösewichtern besteht. Nur so kann die gigantische Bedrohung, die sich mit unheilvollen Vorzeichen ankündigt, abgewehrt werden. Das Überleben der gesamten Menschheit steht auf dem Spiel. Doch wie wird Rip Hunter seine – im Grunde verfeindeten Wunschkandidaten – zusammenführen?

S06E01.mp4 (1.5 GB)



General
Complete name : ./S06E01.mp4
Format : MPEG-4
Format profile : Base Media / Version 2
Codec ID : mp42 (mp42/isom/avc1)
File size : 1.50 GiB
Duration : 53 min 47 s
Overall bit rate mode : Variable
Overall bit rate : 3 987 kb/s
Movie name : S06E01
Encoded date : UTC 2021-09-12 15:10:44
Tagged date : UTC 2021-09-12 15:16:12
Writing application : DVDFab 11.0.4.2
Cover : Yes

Video
ID : 1
Format : AVC
Format/Info : Advanced Video Codec
Format profile : Main@L4
Format settings : CABAC / 2 Ref Frames
Format settings, CABAC : Yes
Format settings, RefFrames : 2 frames
Format settings, GOP : M=1, N=24
Codec ID : avc1
Codec ID/Info : Advanced Video Coding
Duration : 53 min 47 s
Bit rate mode : Variable
Bit rate : 3 728 kb/s
Maximum bit rate : 5 680 kb/s
Width : 1 920 pixels
Height : 1 080 pixels
Display aspect ratio : 16:9
Frame rate mode : Constant
Frame rate : 23.976 (24000/1001) FPS
Color space : YUV
Chroma subsampling : 4:2:0
Bit depth : 8 bits
Scan type : Progressive
Bits/(Pixel*Frame) : 0.075
Stream size : 1.40 GiB (94%)
Encoded date : UTC 2021-09-12 15:10:44
Tagged date : UTC 2021-09-12 15:16:12
Color primaries : BT.709
Transfer characteristics : BT.709
Matrix coefficients : BT.709
Menus : 3

Audio
ID : 2
Format : AC-3
Format/Info : Audio Coding 3
Format settings, Endianness : Big
Codec ID : ac-3
Duration : 53 min 47 s
Bit rate mode : Constant
Bit rate : 256 kb/s
Channel(s) : 6 channels
Channel positions : Front: L C R, Side: L R, LFE
Sampling rate : 48.0 kHz
Frame rate : 31.250 FPS (1536 SPF)
Bit depth : 16 bits
Compression mode : Lossy
Stream size : 98.5 MiB (6%)
Title : English (ac3 5.1)
Language : English
Service kind : Complete Main
Default : Yes
Alternate group : 1
Encoded date : UTC 2021-09-12 15:10:44
Tagged date : UTC 2021-09-12 15:16:12

Menu
ID : 3
Codec ID : text
Duration : 53 min 47 s
Encoded date : UTC 2021-09-12 15:10:44
Tagged date : UTC 2021-09-12 15:16:12
Bit rate mode : CBR
Menu For : 1
00:00:00.000 : Chapter 1
00:04:09.165 : Chapter 2
00:10:25.666 : Chapter 3
00:19:29.960 : Chapter 4
00:29:26.472 : Chapter 5
00:39:44.173 : Chapter 6
00:52:40.532 : Chapter 7





Legends of Tomorrow S06E01


Legends of Tomorrow S06E01


Legends of Tomorrow S06E01


Legends of Tomorrow S06E01


Legends of Tomorrow S06E01

All episodes