Index
# A B C D E F G H I J K L M N O P Q R S T U V W Y Z
Tags
Language
Tags

Featured TV Shows


Legends of Tomorrow S06E02

Posted By: Tavaz
1080p (FullHD) / WEB-DL IMDb
Legends of Tomorrow S06E02

Legends of Tomorrow S06E02
WEB-DL | MOV | 1920x1080 | English | H264 @ 3746 kbps | AC-3 @ 256 kbps | 53 min 23 s | 1.49 GiB
Genre: Drama


Die Superhelden-Serie Legends of Tomorrow ist im gleichen Universum wie Arrow und The Flash angesiedelt. Seit der Ankunft des grünen Bogenschützen und des roten Flitzers hat sich die Welt allerdings gewaltig verändert. Helden alleine reichen nicht mehr, um die Menschen von Star City und Central City zu beschützen. Eine finstere Macht erhebt sich am Horizont - und um diese zu besiegen, benötigt es mindestens eine Handvoll lebender Legenden. Nachdem der Zeitreisende Rip Hunter eine düstere Vision der Zukunft gesehen hat, bleibt ihm keine andere Wahl, als ein Team zusammenzutrommeln, das sowohl aus Helden als auch aus ihren Bösewichtern besteht. Nur so kann die gigantische Bedrohung, die sich mit unheilvollen Vorzeichen ankündigt, abgewehrt werden. Das Überleben der gesamten Menschheit steht auf dem Spiel. Doch wie wird Rip Hunter seine – im Grunde verfeindeten Wunschkandidaten – zusammenführen?

S06E02.mp4 (1.5 GB)



General
Complete name : ./S06E02.mp4
Format : MPEG-4
Format profile : Base Media / Version 2
Codec ID : mp42 (mp42/isom/avc1)
File size : 1.49 GiB
Duration : 53 min 23 s
Overall bit rate mode : Variable
Overall bit rate : 4 005 kb/s
Movie name : S06E02
Encoded date : UTC 2021-09-12 15:16:16
Tagged date : UTC 2021-09-12 15:21:31
Writing application : DVDFab 11.0.4.2
Cover : Yes

Video
ID : 1
Format : AVC
Format/Info : Advanced Video Codec
Format profile : Main@L4
Format settings : CABAC / 2 Ref Frames
Format settings, CABAC : Yes
Format settings, RefFrames : 2 frames
Format settings, GOP : M=1, N=24
Codec ID : avc1
Codec ID/Info : Advanced Video Coding
Duration : 53 min 22 s
Bit rate mode : Variable
Bit rate : 3 747 kb/s
Maximum bit rate : 5 725 kb/s
Width : 1 920 pixels
Height : 1 080 pixels
Display aspect ratio : 16:9
Frame rate mode : Constant
Frame rate : 23.976 (24000/1001) FPS
Color space : YUV
Chroma subsampling : 4:2:0
Bit depth : 8 bits
Scan type : Progressive
Bits/(Pixel*Frame) : 0.075
Stream size : 1.40 GiB (94%)
Encoded date : UTC 2021-09-12 15:16:16
Tagged date : UTC 2021-09-12 15:21:31
Color primaries : BT.709
Transfer characteristics : BT.709
Matrix coefficients : BT.709
Menus : 3

Audio
ID : 2
Format : AC-3
Format/Info : Audio Coding 3
Format settings, Endianness : Big
Codec ID : ac-3
Duration : 53 min 23 s
Bit rate mode : Constant
Bit rate : 256 kb/s
Channel(s) : 6 channels
Channel positions : Front: L C R, Side: L R, LFE
Sampling rate : 48.0 kHz
Frame rate : 31.250 FPS (1536 SPF)
Bit depth : 16 bits
Compression mode : Lossy
Stream size : 97.8 MiB (6%)
Title : English (ac3 5.1)
Language : English
Service kind : Complete Main
Default : Yes
Alternate group : 1
Encoded date : UTC 2021-09-12 15:16:16
Tagged date : UTC 2021-09-12 15:21:31

Menu
ID : 3
Codec ID : text
Duration : 53 min 22 s
Encoded date : UTC 2021-09-12 15:16:16
Tagged date : UTC 2021-09-12 15:21:31
Bit rate mode : CBR
Menu For : 1
Source duration : 3202866
Source frame count : 7
Source stream size : 161
Frame count : 7
Stream size : 161
00:00:00.000 : Chapter 1
00:03:21.910 : Chapter 2
00:11:16.467 : Chapter 3
00:19:57.029 : Chapter 4
00:30:37.210 : Chapter 5
00:40:39.144 : Chapter 6
00:52:17.842 : Chapter 7





Legends of Tomorrow S06E02


Legends of Tomorrow S06E02


Legends of Tomorrow S06E02


Legends of Tomorrow S06E02


Legends of Tomorrow S06E02

All episodes