Index
# A B C D E F G H I J K L M N O P Q R S T U V W Y Z
Tags
Language
Tags

Featured TV Shows


DC's Legends of Tomorrow S06E06

Posted By: Tavaz
1080p (FullHD) / BDRip IMDb
DC's Legends of Tomorrow S06E06

DC's Legends of Tomorrow S06E06
BluRay Remux | MKV | 1920x1080 | English | H264 @ 20926 kbps | DTS | 42 min 28 s | 6.88 GiB
Subtitles: English
Genre: Drama


When heroes alone are not enough … the world needs legends. Having seen the future, one he will desperately try to prevent from happening, time-traveling rogue Rip Hunter is tasked with assembling a disparate group of both heroes and villains to confront an unstoppable threat — one in which not only is the planet at stake, but all of time itself. Can this ragtag team defeat an immortal threat unlike anything they have ever known?

Legends.of.Tomorrow.S06E06.Bishops.Gambit.1080p.BluRay.REMUX.AVC.DTS-HD.MA.5.1-Kenobi.mkv (6.9 GB)



General
Unique ID : 286230129483104483199978600022542592594 (0xD755EAF0BAA6CB05F24A26DCA7732A52)
Complete name : ./Legends.of.Tomorrow.S06E06.Bishops.Gambit.1080p.BluRay.REMUX.AVC.DTS-HD.MA.5.1-Kenobi.mkv
Format : Matroska
Format version : Version 4 / Version 2
File size : 6.88 GiB
Duration : 42 min 28 s
Overall bit rate mode : Variable
Overall bit rate : 23.2 Mb/s
Movie name : Legends of Tomorrow - S06E06 - Bishop's Gambit
Encoded date : UTC 2021-11-13 06:24:37
Writing application : mkvmerge v62.0.0 ('Apollo') 64-bit
Writing library : libebml v1.4.2 + libmatroska v1.6.4
IMDB : tt4532368
TMDB : tv/62643

Video
ID : 1
Format : AVC
Format/Info : Advanced Video Codec
Format profile : High@L4.1
Format settings : CABAC / 4 Ref Frames
Format settings, CABAC : Yes
Format settings, RefFrames : 4 frames
Codec ID : V_MPEG4/ISO/AVC
Duration : 42 min 28 s
Bit rate mode : Variable
Bit rate : 20.9 Mb/s
Maximum bit rate : 40.0 Mb/s
Width : 1 920 pixels
Height : 1 080 pixels
Display aspect ratio : 16:9
Frame rate mode : Constant
Frame rate : 23.976 (24000/1001) FPS
Color space : YUV
Chroma subsampling : 4:2:0
Bit depth : 8 bits
Scan type : Progressive
Bits/(Pixel*Frame) : 0.421
Stream size : 6.21 GiB (90%)
Title : MPEG-4 AVC Video / 20996 kbps / 1080p / 23.976 fps / 16:9 / High Profile 4.1
Language : zxx
Default : Yes
Forced : No

Audio
ID : 2
Format : DTS
Format/Info : Digital Theater Systems
Format profile : MA / Core
Mode : 16
Format settings, Endianness : Big
Codec ID : A_DTS
Duration : 42 min 28 s
Bit rate mode : Variable / Constant
Bit rate : 2 254 kb/s / 1 509 kb/s
Channel(s) : 6 channels
Channel positions : Front: L C R, Side: L R, LFE
Sampling rate : 48.0 kHz
Frame rate : 93.750 FPS (512 SPF)
Bit depth : 16 bits
Compression mode : Lossless / Lossy
Stream size : 685 MiB (10%)
Title : English / DTS-HD Master Audio / 5.1 / 48 kHz / 2251 kbps / 16-bit
Language : English
Default : Yes
Forced : No

Text
ID : 3
Format : PGS
Muxing mode : zlib
Codec ID : S_HDMV/PGS
Codec ID/Info : Picture based subtitle format used on BDs/HD-DVDs
Duration : 41 min 56 s
Bit rate : 42.7 kb/s
Count of elements : 1318
Stream size : 12.8 MiB (0%)
Language : English
Default : Yes
Forced : No

Menu
00:00:00.000 : en:Chapter 01
00:08:59.539 : en:Chapter 02
00:14:30.119 : en:Chapter 03
00:19:25.998 : en:Chapter 04
00:25:55.720 : en:Chapter 05
00:33:35.096 : en:Chapter 06
00:38:32.893 : en:Chapter 07
00:41:59.099 : en:Chapter 08





DC's Legends of Tomorrow S06E06


DC's Legends of Tomorrow S06E06


DC's Legends of Tomorrow S06E06


DC's Legends of Tomorrow S06E06


DC's Legends of Tomorrow S06E06

All episodes