Index
# A B C D E F G H I J K L M N O P Q R S T U V W Y Z
Tags
Language
Tags

Featured TV Shows


Les grands reportages S24E74

Posted By: Tavaz
720p (HD) / WEBRip IMDb
Les grands reportages S24E74

Les grands reportages S24E74
WEBRip | MKV | 1280x720 | English | H264 @ 3000 kbps | AAC @ 125 kbps | 53 min 16 s | 1.15 GiB



Les.grands.reportages.S24E74.Football.arme.du.KGB.FRENCH.720p.WEBRip.x264-REJECT.mkv (1.2 GB)



General
Unique ID : 159067033518833175641961264044745484332 (0x77AB3240D6FD6954B94FF0DE242CE82C)
Complete name : ./Les.grands.reportages.S24E74.Football.arme.du.KGB.FRENCH.720p.WEBRip.x264-REJECT.mkv
Format : Matroska
Format version : Version 4 / Version 2
File size : 1.15 GiB
Duration : 53 min 16 s
Overall bit rate : 3 097 kb/s
Encoded date : UTC 2018-06-19 05:03:28
Writing application : mkvmerge v19.0.0 ('Brave Captain') 64-bit
Writing library : libebml v1.3.5 + libmatroska v1.4.8

Video
ID : 1
Format : AVC
Format/Info : Advanced Video Codec
Format profile : Main@L3.1
Format settings : CABAC / 4 Ref Frames
Format settings, CABAC : Yes
Format settings, RefFrames : 4 frames
Codec ID : V_MPEG4/ISO/AVC
Duration : 53 min 16 s
Bit rate mode : Constant
Bit rate : 3 000 kb/s
Width : 1 280 pixels
Height : 720 pixels
Display aspect ratio : 16:9
Frame rate mode : Variable
Frame rate : 29.970 FPS
Color space : YUV
Chroma subsampling : 4:2:0
Bit depth : 8 bits
Scan type : Progressive
Bits/(Pixel*Frame) : 0.109
Stream size : 1.10 GiB (96%)
Default : Yes
Forced : No

Audio
ID : 2
Format : AAC
Format/Info : Advanced Audio Codec
Format profile : LC
Codec ID : A_AAC-2
Duration : 53 min 16 s
Bit rate : 126 kb/s
Channel(s) : 2 channels
Channel positions : Front: L R
Sampling rate : 44.1 kHz
Frame rate : 43.066 FPS (1024 SPF)
Compression mode : Lossy
Delay relative to video : -33 ms
Stream size : 47.9 MiB (4%)
Default : Yes
Forced : No





Les grands reportages S24E74


Les grands reportages S24E74


Les grands reportages S24E74


Les grands reportages S24E74

All episodes