Index
# A B C D E F G H I J K L M N O P Q R S T U V W Y Z
Tags
Language
Tags

Featured TV Shows


Les grands reportages S24E76

Posted By: Tavaz
720p (HD) / WEBRip IMDb
Les grands reportages S24E76

Les grands reportages S24E76
WEBRip | MKV | 1280x720 | French | H264 @ 3000 kbps | AAC @ 125 kbps | 44 min 47 s | 995 MiB



Les.grands.reportages.S24E76.Que.mangera.t.on.demain.1.de.3.FRENCH.720p.WEBRip.x264-REJECT.mkv (994.6 MB)



General
Unique ID : 199156032733238994280256461158415948176 (0x95D40E8431D7763540E740FA0AB15990)
Complete name : ./Les.grands.reportages.S24E76.Que.mangera.t.on.demain.1.de.3.FRENCH.720p.WEBRip.x264-REJECT.mkv
Format : Matroska
Format version : Version 4 / Version 2
File size : 995 MiB
Duration : 44 min 47 s
Overall bit rate : 3 105 kb/s
Encoded date : UTC 2018-06-21 05:57:44
Writing application : mkvmerge v21.0.0 ('Tardigrades Will Inherit The Earth') 64-bit
Writing library : libebml v1.3.5 + libmatroska v1.4.8

Video
ID : 1
Format : AVC
Format/Info : Advanced Video Codec
Format profile : Main@L3.1
Format settings : CABAC / 4 Ref Frames
Format settings, CABAC : Yes
Format settings, RefFrames : 4 frames
Codec ID : V_MPEG4/ISO/AVC
Duration : 44 min 47 s
Bit rate mode : Constant
Bit rate : 3 000 kb/s
Width : 1 280 pixels
Height : 720 pixels
Display aspect ratio : 16:9
Frame rate mode : Variable
Frame rate : 29.873 FPS
Original frame rate : 29.970 (30000/1001) FPS
Color space : YUV
Chroma subsampling : 4:2:0
Bit depth : 8 bits
Scan type : Progressive
Bits/(Pixel*Frame) : 0.109
Stream size : 953 MiB (96%)
Language : French
Default : Yes
Forced : No

Audio
ID : 2
Format : AAC
Format/Info : Advanced Audio Codec
Format profile : LC
Codec ID : A_AAC-2
Duration : 44 min 47 s
Bit rate : 126 kb/s
Channel(s) : 2 channels
Channel positions : Front: L R
Sampling rate : 44.1 kHz
Frame rate : 43.066 FPS (1024 SPF)
Compression mode : Lossy
Delay relative to video : -33 ms
Stream size : 40.3 MiB (4%)
Language : French
Default : Yes
Forced : No





Les grands reportages S24E76


Les grands reportages S24E76


Les grands reportages S24E76


Les grands reportages S24E76

All episodes