Featured TV Shows


Lethal Weapon S02E13

Posted By: Tavaz
1080p (FullHD) / HDTV IMDb
Lethal Weapon S02E13

Lethal Weapon S02E13
HDTV | MKV | 1920x1078 | French / English | H264 @ 7932 kbps | AAC @ 61 kbps | 40 min 32 s | 2.28 GiB
Subtitles: French
Genre: Crime, Drama

A slightly unhinged former Navy SEAL lands a job as a police officer in Los Angeles where he's partnered with a veteran detective trying to keep maintain a low stress level in his life.

39a8d85939e84c07b112ee0a9f4da9f0.mkv (2.3 GB)



General
Unique ID : 336704787026870971839896182782647136537 (0xFD4EFBB16157DB3E4848C32E951CF119)
Complete name : ./39a8d85939e84c07b112ee0a9f4da9f0.mkv
Format : Matroska
Format version : Version 4 / Version 2
File size : 2.28 GiB
Duration : 40 min 32 s
Overall bit rate : 8 059 kb/s
Encoded date : UTC 2018-05-03 06:10:50
Writing application : mkvmerge v22.0.0 ('At The End Of The World') 32-bit
Writing library : libebml v1.3.5 + libmatroska v1.4.8

Video
ID : 1
Format : AVC
Format/Info : Advanced Video Codec
Format profile : High@L4.1
Format settings : CABAC / 4 Ref Frames
Format settings, CABAC : Yes
Format settings, RefFrames : 4 frames
Codec ID : V_MPEG4/ISO/AVC
Duration : 40 min 32 s
Bit rate : 7 933 kb/s
Width : 1 920 pixels
Height : 1 078 pixels
Display aspect ratio : 16:9
Frame rate mode : Constant
Frame rate : 25.000 FPS
Color space : YUV
Chroma subsampling : 4:2:0
Bit depth : 8 bits
Scan type : Progressive
Bits/(Pixel*Frame) : 0.153
Stream size : 2.25 GiB (98%)
Title : L'arme fatale S02E13
Writing library : x264 core 155 r2901 7d0ff22
Encoding settings : opencl=1 / cabac=1 / ref=4 / deblock=1:0:0 / analyse=0x3:0x133 / me=umh / subme=9 / psy=1 / psy_rd=1.00:0.00 / mixed_ref=1 / me_range=24 / chroma_me=1 / trellis=2 / 8x8dct=1 / cqm=0 / deadzone=21,11 / fast_pskip=0 / chroma_qp_offset=-2 / threads=12 / lookahead_threads=1 / sliced_threads=0 / nr=0 / decimate=1 / interlaced=0 / bluray_compat=0 / constrained_intra=0 / bframes=3 / b_pyramid=2 / b_adapt=2 / b_bias=0 / direct=3 / weightb=1 / open_gop=0 / weightp=2 / keyint=250 / keyint_min=25 / scenecut=40 / intra_refresh=0 / rc_lookahead=60 / rc=crf / mbtree=1 / crf=17.0 / qcomp=0.60 / qpmin=0 / qpmax=69 / qpstep=4 / ip_ratio=1.40 / aq=1:1.00
Language : French
Default : Yes
Forced : No
Color range : Limited
Matrix coefficients : BT.709

Audio #1
ID : 2
Format : AAC
Format/Info : Advanced Audio Codec
Format profile : HE-AAC / LC
Format settings : Explicit
Codec ID : A_AAC-2
Duration : 40 min 32 s
Bit rate : 61.9 kb/s
Channel(s) : 2 channels
Channel positions : Front: L R
Sampling rate : 48.0 kHz / 24.0 kHz
Frame rate : 23.438 FPS (1024 SPF)
Compression mode : Lossy
Stream size : 18.0 MiB (1%)
Title : Français HE-AAC 2.0
Language : French
Default : Yes
Forced : No

Audio #2
ID : 3
Format : AAC
Format/Info : Advanced Audio Codec
Format profile : HE-AAC / LC
Format settings : Explicit
Codec ID : A_AAC-2
Duration : 40 min 32 s
Bit rate : 61.9 kb/s
Channel(s) : 2 channels
Channel positions : Front: L R
Sampling rate : 48.0 kHz / 24.0 kHz
Frame rate : 23.438 FPS (1024 SPF)
Compression mode : Lossy
Stream size : 18.0 MiB (1%)
Title : Anglais HE-AAC 2.0
Language : English
Default : No
Forced : No

Text
ID : 5
Format : UTF-8
Codec ID : S_TEXT/UTF8
Codec ID/Info : UTF-8 Plain Text
Duration : 39 min 48 s
Bit rate : 70 b/s
Count of elements : 712
Stream size : 20.5 KiB (0%)
Title : Français
Language : French
Default : No
Forced : No





Lethal Weapon S02E13


Lethal Weapon S02E13


Lethal Weapon S02E13


Lethal Weapon S02E13


Lethal Weapon S02E13

All episodes