Index
# A B C D E F G H I J K L M N O P Q R S T U V W Y Z
Tags
Language
Tags

Featured TV Shows


Lisey's Story S01E02

Posted By: MegoNecia
1080p (FullHD) / WEBRip IMDb
Lisey's Story S01E02

Lisey's Story S01E02
WEBRip | MKV | 1920x960 | English / Italiano | H264 @ 10052 kbps | E-AC-3 @ 768 kbps | 52 min 58 s | 4.29 GiB
Subtitles: English, Italiano
Genre: Drama, Mystery


This terrifying thriller follows widow Lisey Landon as a series of disturbing events revives memories of her marriage to author Scott Landon and the darkness that plagued him.

Liseys.Story.1x02.Bool.di.sangue.ITA-ENG.1080p.WEB.DDP5.1.H264-NovaRip.mkv (4.3 GB)



General
Unique ID : 173574150842171248044823070662431502690 (0x82952A5C19E6D661747C9183A6767162)
Complete name : ./Liseys.Story.1x02.Bool.di.sangue.ITA-ENG.1080p.WEB.DDP5.1.H264-NovaRip.mkv
Format : Matroska
Format version : Version 4 / Version 2
File size : 4.29 GiB
Duration : 52 min 58 s
Overall bit rate : 11.6 Mb/s
Encoded date : UTC 2021-06-05 11:26:47
Writing application : mkvmerge v43.0.0 ('The Quartermaster') 64-bit
Writing library : libebml v1.3.10 + libmatroska v1.5.2

Video
ID : 1
Format : AVC
Format/Info : Advanced Video Codec
Format profile : High@L4
Format settings : CABAC / 4 Ref Frames
Format settings, CABAC : Yes
Format settings, RefFrames : 4 frames
Codec ID : V_MPEG4/ISO/AVC
Duration : 52 min 58 s
Bit rate : 10.1 Mb/s
Width : 1 920 pixels
Height : 960 pixels
Display aspect ratio : 2.000
Frame rate mode : Constant
Frame rate : 23.976 (24000/1001) FPS
Color space : YUV
Chroma subsampling : 4:2:0
Bit depth : 8 bits
Scan type : Progressive
Bits/(Pixel*Frame) : 0.227
Stream size : 3.72 GiB (87%)
Default : Yes
Forced : No
Color range : Limited
Color primaries : BT.709
Transfer characteristics : BT.709
Matrix coefficients : BT.709

Audio #1
ID : 2
Format : E-AC-3
Format/Info : Enhanced Audio Coding 3
Format profile : E-AC-3+Atmos / E-AC-3
Format settings, Endianness : Big
Codec ID : A_EAC3
Duration : 52 min 58 s
Bit rate mode : Constant
Bit rate : 768 kb/s
Channel(s) : 15 objects / 6 channels
Channel positions : 15 objects / Front: L C R, Side: L R, LFE
Sampling rate : 48.0 kHz
Frame rate : 187.500 FPS (256 SPF)
Compression mode : Lossy
Stream size : 291 MiB (7%)
Title : DD+ 5.1 Italiano @ 768 Kbps
Language : Italian
Service kind : Complete Main
Default : Yes
Forced : No

Audio #2
ID : 3
Format : E-AC-3
Format/Info : Enhanced Audio Coding 3
Format profile : E-AC-3+Atmos / E-AC-3
Format settings, Endianness : Big
Codec ID : A_EAC3
Duration : 52 min 58 s
Bit rate mode : Constant
Bit rate : 768 kb/s
Channel(s) : 15 objects / 6 channels
Channel positions : 15 objects / Front: L C R, Side: L R, LFE
Sampling rate : 48.0 kHz
Frame rate : 187.500 FPS (256 SPF)
Compression mode : Lossy
Stream size : 291 MiB (7%)
Title : DD+ 5.1 English @ 768 Kbps
Language : English
Service kind : Complete Main
Default : No
Forced : No

Text #1
ID : 4
Format : UTF-8
Codec ID : S_TEXT/UTF8
Codec ID/Info : UTF-8 Plain Text
Duration : 33 min 50 s
Bit rate : 1 b/s
Count of elements : 11
Stream size : 312 Bytes (0%)
Title : Italiano - Forced
Language : Italian
Default : Yes
Forced : Yes

Text #2
ID : 5
Format : UTF-8
Codec ID : S_TEXT/UTF8
Codec ID/Info : UTF-8 Plain Text
Duration : 50 min 35 s
Bit rate : 51 b/s
Count of elements : 530
Stream size : 19.0 KiB (0%)
Title : Italiano
Language : Italian
Default : No
Forced : No

Text #3
ID : 6
Format : UTF-8
Codec ID : S_TEXT/UTF8
Codec ID/Info : UTF-8 Plain Text
Duration : 49 min 26 s
Bit rate : 57 b/s
Count of elements : 601
Stream size : 20.9 KiB (0%)
Title : Italiano - SDH
Language : Italian
Default : No
Forced : No

Text #4
ID : 7
Format : UTF-8
Codec ID : S_TEXT/UTF8
Codec ID/Info : UTF-8 Plain Text
Duration : 48 min 15 s
Bit rate : 53 b/s
Count of elements : 521
Stream size : 19.0 KiB (0%)
Title : English
Language : English
Default : No
Forced : No

Text #5
ID : 8
Format : UTF-8
Codec ID : S_TEXT/UTF8
Codec ID/Info : UTF-8 Plain Text
Duration : 49 min 5 s
Bit rate : 58 b/s
Count of elements : 595
Stream size : 21.0 KiB (0%)
Title : English - SDH
Language : English
Default : No
Forced : No





Lisey's Story S01E02


Lisey's Story S01E02


Lisey's Story S01E02


Lisey's Story S01E02


Lisey's Story S01E02

All episodes