Featured TV Shows


ATLANTA S03E13

Posted By: Tavaz
1080p (FullHD) / WEB-DL IMDb
ATLANTA S03E13

ATLANTA S03E13
WEB-DL | MKV | 1920x1080 | English | H264 @ 5930 kbps | AAC @ 63 kbps | 40 min 30 s | 1.70 GiB
Subtitles: English
Genre: Commedia

Una comedy insolita, dark, strana, ambientata nella scena rap di Atlanta. Ce la farà Earl, il protagonista, a diventare il manager di suo cugino Alfred? E, una volta riuscitoci, riuscirà a farlo ragionare e farlo diventare una vera star? Il tutto con un twist di stranezze alla Twin Peaks. Un successo di pubblico e di critica, tanto che FX ha già rinnovato Atlanta per una seconda stagione.

b6b38f0626374efaba63d1b267d0ac45.mkv (1.7 GB)



General
Unique ID : 61491733285745863508422541670189918954 (0x2E42E086226AAA1F0B456401C3486AEA)
Complete name : ./b6b38f0626374efaba63d1b267d0ac45.mkv
Format : Matroska
Format version : Version 4 / Version 2
File size : 1.70 GiB
Duration : 40 min 30 s
Overall bit rate : 5 996 kb/s
Encoded date : UTC 2018-10-12 07:42:40
Writing application : mkvmerge v20.0.0 ('I Am The Sun') 32-bit
Writing library : libebml v1.3.5 + libmatroska v1.4.8

Video
ID : 1
Format : AVC
Format/Info : Advanced Video Codec
Format profile : High@L4
Format settings : CABAC / 4 Ref Frames
Format settings, CABAC : Yes
Format settings, RefFrames : 4 frames
Codec ID : V_MPEG4/ISO/AVC
Duration : 40 min 30 s
Bit rate : 5 930 kb/s
Width : 1 920 pixels
Height : 1 080 pixels
Display aspect ratio : 16:9
Frame rate mode : Constant
Frame rate : 23.976 (24000/1001) FPS
Color space : YUV
Chroma subsampling : 4:2:0
Bit depth : 8 bits
Scan type : Progressive
Bits/(Pixel*Frame) : 0.119
Stream size : 1.68 GiB (99%)
Default : Yes
Forced : No

Audio
ID : 2
Format : AAC
Format/Info : Advanced Audio Codec
Format profile : HE-AAC / LC
Format settings : Explicit
Codec ID : A_AAC-2
Duration : 40 min 30 s
Bit rate : 64.0 kb/s
Channel(s) : 2 channels
Channel positions : Front: L R
Sampling rate : 48.0 kHz / 24.0 kHz
Frame rate : 23.438 FPS (1024 SPF)
Compression mode : Lossy
Stream size : 18.5 MiB (1%)
Default : Yes
Forced : No

Text
ID : 3
Format : UTF-8
Codec ID : S_TEXT/UTF8
Codec ID/Info : UTF-8 Plain Text
Duration : 40 min 24 s
Bit rate : 124 b/s
Count of elements : 1044
Stream size : 36.9 KiB (0%)
Language : English
Default : No
Forced : No





ATLANTA S03E13


ATLANTA S03E13


ATLANTA S03E13


ATLANTA S03E13


ATLANTA S03E13

All episodes