Featured TV Shows


Little Women: LA S06E33

Posted By: Tavaz
720p (HD) / WEBRip IMDb
Little Women: LA S06E33

Little Women: LA S06E33
WEBRip | MKV | 1280x720 | English | H264 @ 2491 kbps | AAC @ 127 kbps | 40 min 49 s | 766 MiB

The adventures of a unique group of smart, sexy and funny girlfriends with big hearts and big personalities – who all happen to be little people. Viewers walk in their shoes as they deal with relationships, parenting, careers and the ups and downs of friendships. They laugh, cry, compete and fight with one another, but despite it all they share a special unbreakable bond.

Little.Women.LA.S06E33.Terras.Big.House.Budget.Blues.720p.WEB.h264-CRiMSON.mkv (765.7 MB)



General
Unique ID : 175926575200465678366742028855264990500 (0x845A39D5D7557CC2CFF57CAD58E0D524)
Complete name : ./Little.Women.LA.S06E33.Terras.Big.House.Budget.Blues.720p.WEB.h264-CRiMSON.mkv
Format : Matroska
Format version : Version 4 / Version 2
File size : 766 MiB
Duration : 40 min 49 s
Overall bit rate : 2 622 kb/s
Encoded date : UTC 2018-01-04 18:45:59
Writing application : mkvmerge v19.0.0 ('Brave Captain') 64-bit
Writing library : libebml v1.3.5 + libmatroska v1.4.8

Video
ID : 1
Format : AVC
Format/Info : Advanced Video Codec
Format profile : Main@L3.1
Format settings : CABAC / 4 Ref Frames
Format settings, CABAC : Yes
Format settings, RefFrames : 4 frames
Codec ID : V_MPEG4/ISO/AVC
Duration : 40 min 49 s
Bit rate : 2 491 kb/s
Width : 1 280 pixels
Height : 720 pixels
Display aspect ratio : 16:9
Frame rate mode : Constant
Frame rate : 23.976 (24000/1001) FPS
Color space : YUV
Chroma subsampling : 4:2:0
Bit depth : 8 bits
Scan type : Progressive
Bits/(Pixel*Frame) : 0.113
Stream size : 728 MiB (95%)
Writing library : Zencoder Video Encoding System
Default : Yes
Forced : No

Audio
ID : 2
Format : AAC
Format/Info : Advanced Audio Codec
Format profile : LC
Codec ID : A_AAC-2
Duration : 40 min 49 s
Bit rate : 128 kb/s
Channel(s) : 2 channels
Channel positions : Front: L R
Sampling rate : 48.0 kHz
Frame rate : 46.875 FPS (1024 SPF)
Compression mode : Lossy
Stream size : 37.4 MiB (5%)
Language : English
Default : Yes
Forced : No





Little Women: LA S06E33


Little Women: LA S06E33


Little Women: LA S06E33


Little Women: LA S06E33


Little Women: LA S06E33

All episodes