Featured TV Shows


Loki S01E01

Posted By: Tavaz
1080p (FullHD) / WEBRip IMDb
Loki S01E01

Loki S01E01
WEBRip | MKV | 1920x1080 | Français / English | H264 @ 5715 kbps | E-AC-3 @ 256 kbps | 51 min 30 s | 2.43 GiB
Subtitles: Français, English
Genre: Drama


After stealing the Tesseract during the events of “Avengers: Endgame,” an alternate version of Loki is brought to the mysterious Time Variance Authority, a bureaucratic organization that exists outside of time and space and monitors the timeline. They give Loki a choice: face being erased from existence due to being a “time variant”or help fix the timeline and stop a greater threat.

e286644e1254615c44a05a3e79ff5c31.mkv (2.4 GB)



General
Unique ID : 203215590231991708773653382788592539627 (0x98E1E6277267F810C5E377B072DD97EB)
Complete name : ./e286644e1254615c44a05a3e79ff5c31.mkv
Format : Matroska
Format version : Version 4 / Version 2
File size : 2.43 GiB
Duration : 51 min 30 s
Overall bit rate mode : Variable
Overall bit rate : 6 742 kb/s
Encoded date : UTC 2021-06-09 06:55:41
Writing application : mkvmerge v57.0.0 ('Till The End') 64-bit
Writing library : libebml v1.4.2 + libmatroska v1.6.4

Video
ID : 1
Format : AVC
Format/Info : Advanced Video Codec
Format profile : High@L4
Format settings : CABAC / 4 Ref Frames
Format settings, CABAC : Yes
Format settings, RefFrames : 4 frames
Codec ID : V_MPEG4/ISO/AVC
Duration : 51 min 30 s
Bit rate mode : Variable
Bit rate : 5 716 kb/s
Maximum bit rate : 12.7 Mb/s
Width : 1 920 pixels
Height : 1 080 pixels
Display aspect ratio : 16:9
Frame rate mode : Constant
Frame rate : 24.000 FPS
Color space : YUV
Chroma subsampling : 4:2:0
Bit depth : 8 bits
Scan type : Progressive
Bits/(Pixel*Frame) : 0.115
Stream size : 2.06 GiB (85%)
Default : Yes
Forced : No
Color range : Limited
Color primaries : BT.709
Transfer characteristics : BT.709
Matrix coefficients : BT.709

Audio #1
ID : 2
Format : E-AC-3
Format/Info : Enhanced Audio Coding 3
Format settings, Endianness : Big
Codec ID : A_EAC3
Duration : 51 min 30 s
Bit rate mode : Constant
Bit rate : 256 kb/s
Channel(s) : 6 channels
Channel positions : Front: L C R, Side: L R, LFE
Sampling rate : 48.0 kHz
Frame rate : 187.500 FPS (256 SPF)
Compression mode : Lossy
Stream size : 94.3 MiB (4%)
Title : French
Language : French
Service kind : Complete Main
Default : Yes
Forced : No

Audio #2
ID : 3
Format : E-AC-3
Format/Info : Enhanced Audio Coding 3
Format profile : E-AC-3+Atmos / E-AC-3
Format settings, Endianness : Big
Codec ID : A_EAC3
Duration : 51 min 30 s
Bit rate mode : Constant
Bit rate : 768 kb/s
Channel(s) : 15 objects / 6 channels
Channel positions : 15 objects / Front: L C R, Side: L R, LFE
Sampling rate : 48.0 kHz
Frame rate : 187.500 FPS (256 SPF)
Compression mode : Lossy
Stream size : 283 MiB (11%)
Title : English
Language : English
Service kind : Complete Main
Default : No
Forced : No

Text #1
ID : 4
Format : UTF-8
Codec ID : S_TEXT/UTF8
Codec ID/Info : UTF-8 Plain Text
Duration : 43 min 32 s
Bit rate : 0 b/s
Count of elements : 8
Stream size : 152 Bytes (0%)
Title : French (Forced)
Language : French
Default : Yes
Forced : Yes

Text #2
ID : 5
Format : UTF-8
Codec ID : S_TEXT/UTF8
Codec ID/Info : UTF-8 Plain Text
Duration : 50 min 6 s
Bit rate : 42 b/s
Count of elements : 538
Stream size : 15.6 KiB (0%)
Title : French
Language : French
Default : No
Forced : No

Text #3
ID : 6
Format : UTF-8
Codec ID : S_TEXT/UTF8
Codec ID/Info : UTF-8 Plain Text
Duration : 50 min 5 s
Bit rate : 55 b/s
Count of elements : 688
Stream size : 20.4 KiB (0%)
Title : English (SDH)
Language : English
Default : No
Forced : No





Loki S01E01


Loki S01E01


Loki S01E01


Loki S01E01


Loki S01E01

All episodes