Index
# A B C D E F G H I J K L M N O P Q R S T U V W Y Z
Tags
Language
Tags

Featured TV Shows


Loki S01E02

Posted By:
1080p (FullHD) / WEB-DL IMDb
Loki S01E02

Loki S01E02
WEB-DL | MKV | 1920x1080 | English | H264 @ 5983 kbps | E-AC-3 @ 768 kbps | 53 min 12 s | 2.51 GiB
Genre: Drama


After stealing the Tesseract during the events of “Avengers: Endgame,” an alternate version of Loki is brought to the mysterious Time Variance Authority, a bureaucratic organization that exists outside of time and space and monitors the timeline. They give Loki a choice: face being erased from existence due to being a “time variant”or help fix the timeline and stop a greater threat.

4ee00c0501fb45fdb8b40447fd4bb747.mkv (2.5 GB)



General
Unique ID : 104311903606982017482030149400898478931 (0x4E79BDEB4693C31FFECEB9BFE3A6A353)
Complete name : ./4ee00c0501fb45fdb8b40447fd4bb747.mkv
Format : Matroska
Format version : Version 4 / Version 2
File size : 2.51 GiB
Duration : 53 min 12 s
Overall bit rate mode : Variable
Overall bit rate : 6 754 kb/s
Encoded date : UTC 2021-06-16 06:50:24
Writing application : mkvmerge v19.0.0 ('Brave Captain') 64-bit
Writing library : libebml v1.3.5 + libmatroska v1.4.8

Video
ID : 1
Format : AVC
Format/Info : Advanced Video Codec
Format profile : High@L4
Format settings : CABAC / 4 Ref Frames
Format settings, CABAC : Yes
Format settings, RefFrames : 4 frames
Codec ID : V_MPEG4/ISO/AVC
Duration : 53 min 12 s
Bit rate mode : Variable
Bit rate : 5 984 kb/s
Maximum bit rate : 12.7 Mb/s
Width : 1 920 pixels
Height : 1 080 pixels
Display aspect ratio : 16:9
Frame rate mode : Constant
Frame rate : 24.000 FPS
Color space : YUV
Chroma subsampling : 4:2:0
Bit depth : 8 bits
Scan type : Progressive
Bits/(Pixel*Frame) : 0.120
Stream size : 2.22 GiB (89%)
Default : Yes
Forced : No
Color range : Limited
Color primaries : BT.709
Transfer characteristics : BT.709
Matrix coefficients : BT.709

Audio
ID : 2
Format : E-AC-3
Format/Info : Enhanced Audio Coding 3
Format profile : E-AC-3+Atmos / E-AC-3
Format settings, Endianness : Big
Codec ID : A_EAC3
Duration : 53 min 12 s
Bit rate mode : Constant
Bit rate : 768 kb/s
Channel(s) : 15 objects / 6 channels
Channel positions : 15 objects / Front: L C R, Side: L R, LFE
Sampling rate : 48.0 kHz
Frame rate : 187.500 FPS (256 SPF)
Compression mode : Lossy
Stream size : 292 MiB (11%)
Title : English
Language : English
Service kind : Complete Main
Default : Yes
Forced : No





Loki S01E02


Loki S01E02


Loki S01E02


Loki S01E02


Loki S01E02

All episodes