Index
# A B C D E F G H I J K L M N O P Q R S T U V W Y Z
Tags
Language
Tags

Featured TV Shows


Loki S01E05

Posted By:
1080p (FullHD) / WEB-DL IMDb
Loki S01E05

Loki S01E05
WEB-DL | MKV | 1920x1080 | English | H264 @ 5885 kbps | E-AC-3 @ 768 kbps | 48 min 29 s | 2.25 GiB
Genre: Drama


After stealing the Tesseract during the events of “Avengers: Endgame,” an alternate version of Loki is brought to the mysterious Time Variance Authority, a bureaucratic organization that exists outside of time and space and monitors the timeline. They give Loki a choice: face being erased from existence due to being a “time variant”or help fix the timeline and stop a greater threat.

f6f40bab5f2748c3b4677b2f0ab7027e.mkv (2.3 GB)



General
Unique ID : 208533921668258381552948870078020650205 (0x9CE22C2376D30F1164058228282B04DD)
Complete name : ./f6f40bab5f2748c3b4677b2f0ab7027e.mkv
Format : Matroska
Format version : Version 4 / Version 2
File size : 2.25 GiB
Duration : 48 min 29 s
Overall bit rate mode : Variable
Overall bit rate : 6 655 kb/s
Encoded date : UTC 2021-07-07 06:50:25
Writing application : mkvmerge v19.0.0 ('Brave Captain') 64-bit
Writing library : libebml v1.3.5 + libmatroska v1.4.8

Video
ID : 1
Format : AVC
Format/Info : Advanced Video Codec
Format profile : High@L4
Format settings : CABAC / 4 Ref Frames
Format settings, CABAC : Yes
Format settings, RefFrames : 4 frames
Codec ID : V_MPEG4/ISO/AVC
Duration : 48 min 29 s
Bit rate mode : Variable
Bit rate : 5 885 kb/s
Maximum bit rate : 12.7 Mb/s
Width : 1 920 pixels
Height : 1 080 pixels
Display aspect ratio : 16:9
Frame rate mode : Constant
Frame rate : 24.000 FPS
Color space : YUV
Chroma subsampling : 4:2:0
Bit depth : 8 bits
Scan type : Progressive
Bits/(Pixel*Frame) : 0.118
Stream size : 1.99 GiB (88%)
Default : Yes
Forced : No
Color range : Limited
Color primaries : BT.709
Transfer characteristics : BT.709
Matrix coefficients : BT.709

Audio
ID : 2
Format : E-AC-3
Format/Info : Enhanced Audio Coding 3
Format profile : E-AC-3+Atmos / E-AC-3
Format settings, Endianness : Big
Codec ID : A_EAC3
Duration : 48 min 29 s
Bit rate mode : Constant
Bit rate : 768 kb/s
Channel(s) : 15 objects / 6 channels
Channel positions : 15 objects / Front: L C R, Side: L R, LFE
Sampling rate : 48.0 kHz
Frame rate : 187.500 FPS (256 SPF)
Compression mode : Lossy
Stream size : 266 MiB (12%)
Title : English
Language : English
Service kind : Complete Main
Default : Yes
Forced : No





Loki S01E05


Loki S01E05


Loki S01E05


Loki S01E05


Loki S01E05

All episodes