Index
# A B C D E F G H I J K L M N O P Q R S T U V W Y Z
Tags
Language
Tags

Featured TV Shows


Loki S01E06

Posted By: Tavaz
1080p (FullHD) / WEB-DL IMDb
Loki S01E06

Loki S01E06
WEB-DL | MKV | 1920x1080 | English | H264 @ 5645 kbps | E-AC-3 @ 768 kbps | 45 min 22 s | 2.03 GiB
Subtitles: 中文, Français, Deutsch, Suomi, Español, Svenska, Italiano, Nederlands, Dansk, English, 日本語, Português
Genre: Drama


After stealing the Tesseract during the events of “Avengers: Endgame,” an alternate version of Loki is brought to the mysterious Time Variance Authority, a bureaucratic organization that exists outside of time and space and monitors the timeline. They give Loki a choice: face being erased from existence due to being a “time variant”or help fix the timeline and stop a greater threat.

af9a4bcc200444c5b20cc83f1a16b4ae.mkv (2.0 GB)



General
Unique ID : 59579074711903697418299996789981365770 (0x2CD2832CF38F19ED1F4297EFE680C60A)
Complete name : ./af9a4bcc200444c5b20cc83f1a16b4ae.mkv
Format : Matroska
Format version : Version 4 / Version 2
File size : 2.03 GiB
Duration : 45 min 22 s
Overall bit rate mode : Variable
Overall bit rate : 6 418 kb/s
Encoded date : UTC 2021-07-14 06:50:22
Writing application : mkvmerge v59.0.0 ('Shining Star') 64-bit
Writing library : libebml v1.4.2 + libmatroska v1.6.4

Video
ID : 1
Format : AVC
Format/Info : Advanced Video Codec
Format profile : High@L4
Format settings : CABAC / 4 Ref Frames
Format settings, CABAC : Yes
Format settings, RefFrames : 4 frames
Codec ID : V_MPEG4/ISO/AVC
Duration : 45 min 22 s
Bit rate mode : Variable
Bit rate : 5 646 kb/s
Maximum bit rate : 12.7 Mb/s
Width : 1 920 pixels
Height : 1 080 pixels
Display aspect ratio : 16:9
Frame rate mode : Constant
Frame rate : 24.000 FPS
Color space : YUV
Chroma subsampling : 4:2:0
Bit depth : 8 bits
Scan type : Progressive
Bits/(Pixel*Frame) : 0.113
Stream size : 1.79 GiB (88%)
Default : Yes
Forced : No
Color range : Limited
Color primaries : BT.709
Transfer characteristics : BT.709
Matrix coefficients : BT.709

Audio
ID : 2
Format : E-AC-3
Format/Info : Enhanced Audio Coding 3
Format profile : E-AC-3+Atmos / E-AC-3
Format settings, Endianness : Big
Codec ID : A_EAC3
Duration : 45 min 22 s
Bit rate mode : Constant
Bit rate : 768 kb/s
Channel(s) : 15 objects / 6 channels
Channel positions : 15 objects / Front: L C R, Side: L R, LFE
Sampling rate : 48.0 kHz
Frame rate : 187.500 FPS (256 SPF)
Compression mode : Lossy
Stream size : 249 MiB (12%)
Title : English
Language : English
Service kind : Complete Main
Default : No
Forced : No

Text #1
ID : 3
Format : UTF-8
Codec ID : S_TEXT/UTF8
Codec ID/Info : UTF-8 Plain Text
Duration : 45 min 10 s
Bit rate : 45 b/s
Count of elements : 508
Stream size : 15.0 KiB (0%)
Title : German
Language : German
Default : No
Forced : No

Text #2
ID : 4
Format : UTF-8
Codec ID : S_TEXT/UTF8
Codec ID/Info : UTF-8 Plain Text
Duration : 45 min 10 s
Bit rate : 45 b/s
Count of elements : 490
Stream size : 15.0 KiB (0%)
Title : Portuguese
Language : Portuguese
Default : No
Forced : No

Text #3
ID : 5
Format : UTF-8
Codec ID : S_TEXT/UTF8
Codec ID/Info : UTF-8 Plain Text
Duration : 45 min 10 s
Bit rate : 45 b/s
Count of elements : 456
Stream size : 15.0 KiB (0%)
Title : Dutch
Language : Dutch
Default : No
Forced : No

Text #4
ID : 6
Format : UTF-8
Codec ID : S_TEXT/UTF8
Codec ID/Info : UTF-8 Plain Text
Duration : 45 min 10 s
Bit rate : 40 b/s
Count of elements : 490
Stream size : 13.3 KiB (0%)
Title : Finnish
Language : Finnish
Default : No
Forced : No

Text #5
ID : 7
Format : UTF-8
Codec ID : S_TEXT/UTF8
Codec ID/Info : UTF-8 Plain Text
Duration : 42 min 48 s
Bit rate : 52 b/s
Count of elements : 556
Stream size : 16.5 KiB (0%)
Title : English [SDH]
Language : English
Default : No
Forced : No

Text #6
ID : 8
Format : UTF-8
Codec ID : S_TEXT/UTF8
Codec ID/Info : UTF-8 Plain Text
Duration : 39 min 55 s
Bit rate : 50 b/s
Count of elements : 488
Stream size : 14.9 KiB (0%)
Title : English
Language : English
Default : No
Forced : No

Text #7
ID : 9
Format : UTF-8
Codec ID : S_TEXT/UTF8
Codec ID/Info : UTF-8 Plain Text
Duration : 45 min 10 s
Bit rate : 39 b/s
Count of elements : 490
Stream size : 13.2 KiB (0%)
Title : Norwegian
Language : Norwegian
Default : No
Forced : No

Text #8
ID : 10
Format : UTF-8
Codec ID : S_TEXT/UTF8
Codec ID/Info : UTF-8 Plain Text
Duration : 45 min 10 s
Bit rate : 44 b/s
Count of elements : 414
Stream size : 14.6 KiB (0%)
Title : Swedish
Language : Swedish
Default : No
Forced : No

Text #9
ID : 11
Format : UTF-8
Codec ID : S_TEXT/UTF8
Codec ID/Info : UTF-8 Plain Text
Duration : 45 min 10 s
Bit rate : 45 b/s
Count of elements : 490
Stream size : 15.2 KiB (0%)
Title : Spanish
Language : Spanish
Default : No
Forced : No

Text #10
ID : 12
Format : UTF-8
Codec ID : S_TEXT/UTF8
Codec ID/Info : UTF-8 Plain Text
Duration : 45 min 10 s
Bit rate : 45 b/s
Count of elements : 489
Stream size : 15.2 KiB (0%)
Title : Brazilian Portuguese
Language : Portuguese
Default : No
Forced : No

Text #11
ID : 13
Format : UTF-8
Codec ID : S_TEXT/UTF8
Codec ID/Info : UTF-8 Plain Text
Duration : 45 min 19 s
Bit rate : 43 b/s
Count of elements : 489
Stream size : 14.4 KiB (0%)
Title : Japanese
Language : Japanese
Default : No
Forced : No

Text #12
ID : 14
Format : UTF-8
Codec ID : S_TEXT/UTF8
Codec ID/Info : UTF-8 Plain Text
Duration : 45 min 10 s
Bit rate : 42 b/s
Count of elements : 516
Stream size : 14.0 KiB (0%)
Title : French
Language : French
Default : No
Forced : No

Text #13
ID : 15
Format : UTF-8
Codec ID : S_TEXT/UTF8
Codec ID/Info : UTF-8 Plain Text
Duration : 42 min 46 s
Bit rate : 44 b/s
Count of elements : 515
Stream size : 13.9 KiB (0%)
Title : French Canadian
Language : French
Default : No
Forced : No

Text #14
ID : 16
Format : UTF-8
Codec ID : S_TEXT/UTF8
Codec ID/Info : UTF-8 Plain Text
Duration : 45 min 10 s
Bit rate : 45 b/s
Count of elements : 490
Stream size : 15.1 KiB (0%)
Title : European Spanish
Language : Spanish
Default : No
Forced : No

Text #15
ID : 17
Format : UTF-8
Codec ID : S_TEXT/UTF8
Codec ID/Info : UTF-8 Plain Text
Duration : 45 min 10 s
Bit rate : 45 b/s
Count of elements : 490
Stream size : 15.1 KiB (0%)
Title : Italian
Language : Italian
Default : No
Forced : No

Text #16
ID : 18
Format : UTF-8
Codec ID : S_TEXT/UTF8
Codec ID/Info : UTF-8 Plain Text
Duration : 45 min 10 s
Bit rate : 42 b/s
Count of elements : 494
Stream size : 14.2 KiB (0%)
Title : Chinese Simplified
Language : Chinese
Default : No
Forced : No

Text #17
ID : 19
Format : UTF-8
Codec ID : S_TEXT/UTF8
Codec ID/Info : UTF-8 Plain Text
Duration : 45 min 10 s
Bit rate : 42 b/s
Count of elements : 388
Stream size : 13.9 KiB (0%)
Title : Danish
Language : Danish
Default : No
Forced : No

Text #18
ID : 20
Format : UTF-8
Codec ID : S_TEXT/UTF8
Codec ID/Info : UTF-8 Plain Text
Duration : 45 min 10 s
Bit rate : 36 b/s
Count of elements : 494
Stream size : 12.2 KiB (0%)
Title : Mandarin (Guoyu)
Language : Chinese
Default : No
Forced : No





Loki S01E06


Loki S01E06


Loki S01E06


Loki S01E06


Loki S01E06

All episodes