Featured TV Shows


Lone Star Law S04E09

Posted By: Tavaz
1080p (FullHD) / WEBRip IMDb
Lone Star Law S04E09

Lone Star Law S04E09
WEBRip | MKV | 1920x1080 | English | H264 @ 6400 kbps | AAC @ 160 kbps | 44 min 15 s | 2.01 GiB


Follow Viewers get unprecedented access to the more than 500 agents of Texas Parks and Wildlife wardens who embark on dangerous missions to apprehend those who commit crimes against nature. The series captures the more than 60,000 arrests each year made by the wardens as they execute undercover stings, work on ongoing investigations and protect their territories.

41f046095c6f4a5894b618e33eebbc1e.mkv (2.0 GB)



General
Unique ID : 211183840293083095262224490729773752441 (0x9EE08736BF153E05A3D81324C4406079)
Complete name : ./41f046095c6f4a5894b618e33eebbc1e.mkv
Format : Matroska
Format version : Version 4 / Version 2
File size : 2.01 GiB
Duration : 44 min 15 s
Overall bit rate : 6 495 kb/s
Encoded date : UTC 2019-07-30 16:00:28
Writing application : mkvmerge v31.0.0 ('Dolores In A Shoestand') 64-bit
Writing library : libebml v1.3.6 + libmatroska v1.4.9

Video
ID : 1
Format : AVC
Format/Info : Advanced Video Codec
Format profile : High@L4.1
Format settings : CABAC / 4 Ref Frames
Format settings, CABAC : Yes
Format settings, RefFrames : 4 frames
Codec ID : V_MPEG4/ISO/AVC
Duration : 44 min 15 s
Bit rate : 6 400 kb/s
Width : 1 920 pixels
Height : 1 080 pixels
Display aspect ratio : 16:9
Frame rate mode : Constant
Frame rate : 25.000 FPS
Color space : YUV
Chroma subsampling : 4:2:0
Bit depth : 8 bits
Scan type : Progressive
Bits/(Pixel*Frame) : 0.123
Stream size : 1.96 GiB (97%)
Writing library : x264 core 157
Encoding settings : cabac=1 / ref=3 / deblock=1:0:0 / analyse=0x3:0x133 / me=hex / subme=9 / psy=1 / psy_rd=1.00:0.00 / mixed_ref=1 / me_range=16 / chroma_me=1 / trellis=2 / 8x8dct=1 / cqm=0 / deadzone=21,11 / fast_pskip=1 / chroma_qp_offset=-2 / threads=34 / lookahead_threads=2 / sliced_threads=0 / nr=0 / decimate=1 / interlaced=0 / bluray_compat=0 / constrained_intra=0 / bframes=3 / b_pyramid=2 / b_adapt=2 / b_bias=0 / direct=3 / weightb=1 / open_gop=0 / weightp=2 / keyint=50 / keyint_min=26 / scenecut=0 / intra_refresh=0 / rc_lookahead=60 / rc=cbr / mbtree=1 / bitrate=6400 / ratetol=1.0 / qcomp=0.60 / qpmin=0 / qpmax=69 / qpstep=4 / vbv_maxrate=6400 / vbv_bufsize=32000 / nal_hrd=none / filler=0 / ip_ratio=1.40 / aq=1:1.00
Default : Yes
Forced : No

Audio
ID : 2
Format : AAC
Format/Info : Advanced Audio Codec
Format profile : LC
Codec ID : A_AAC-2
Duration : 44 min 14 s
Bit rate : 160 kb/s
Channel(s) : 2 channels
Channel positions : Front: L R
Sampling rate : 48.0 kHz
Frame rate : 46.875 FPS (1024 SPF)
Compression mode : Lossy
Stream size : 50.6 MiB (2%)
Language : English
Default : Yes
Forced : No





Lone Star Law S04E09


Lone Star Law S04E09


Lone Star Law S04E09


Lone Star Law S04E09


Lone Star Law S04E09

All episodes