Featured TV Shows


Lone Star Law S07E04

Posted By: Tavaz
720p (HD) / WEBRip IMDb
Lone Star Law S07E04

Lone Star Law S07E04
WEBRip | MKV | 1280x720 | English | H264 @ 4550 kbps | AAC @ 126 kbps | 42 min 18 s | 1.38 GiB
Subtitles: English


Follow Viewers get unprecedented access to the more than 500 agents of Texas Parks and Wildlife wardens who embark on dangerous missions to apprehend those who commit crimes against nature. The series captures the more than 60,000 arrests each year made by the wardens as they execute undercover stings, work on ongoing investigations and protect their territories.

ab116b4a7868423ca5049a88f3956108.mkv (1.4 GB)



General
Unique ID : 195357546189657033087339003452360541849 (0x92F87EABA9B0E6F9035E05F79230C699)
Complete name : ./ab116b4a7868423ca5049a88f3956108.mkv
Format : Matroska
Format version : Version 4 / Version 2
File size : 1.38 GiB
Duration : 42 min 18 s
Overall bit rate : 4 679 kb/s
Encoded date : UTC 2020-01-20 05:45:17
Writing application : mkvmerge v42.0.0 ('Overtime') 64-bit
Writing library : libebml v1.3.10 + libmatroska v1.5.2

Video
ID : 1
Format : AVC
Format/Info : Advanced Video Codec
Format profile : High@L4.1
Format settings : CABAC / 5 Ref Frames
Format settings, CABAC : Yes
Format settings, RefFrames : 5 frames
Codec ID : V_MPEG4/ISO/AVC
Duration : 42 min 18 s
Bit rate : 4 550 kb/s
Width : 1 280 pixels
Height : 720 pixels
Display aspect ratio : 16:9
Frame rate mode : Constant
Frame rate : 23.976 (24000/1001) FPS
Color space : YUV
Chroma subsampling : 4:2:0
Bit depth : 8 bits
Scan type : Progressive
Bits/(Pixel*Frame) : 0.206
Stream size : 1.34 GiB (97%)
Writing library : x264 core 158 r2984 3759fcb
Encoding settings : cabac=1 / ref=5 / deblock=1:-3:-3 / analyse=0x3:0x113 / me=hex / subme=8 / psy=1 / psy_rd=1.00:0.00 / mixed_ref=1 / me_range=16 / chroma_me=1 / trellis=2 / 8x8dct=1 / cqm=0 / deadzone=21,11 / fast_pskip=1 / chroma_qp_offset=-2 / threads=34 / lookahead_threads=5 / sliced_threads=0 / nr=0 / decimate=1 / interlaced=0 / bluray_compat=0 / constrained_intra=0 / bframes=3 / b_pyramid=2 / b_adapt=2 / b_bias=0 / direct=3 / weightb=1 / open_gop=0 / weightp=2 / keyint=250 / keyint_min=25 / scenecut=40 / intra_refresh=0 / rc_lookahead=50 / rc=crf / mbtree=1 / crf=19.0 / qcomp=0.60 / qpmin=0 / qpmax=69 / qpstep=4 / ip_ratio=1.40 / aq=1:1.00
Language : English
Default : Yes
Forced : No
Color range : Limited
Matrix coefficients : BT.709

Audio
ID : 2
Format : AAC
Format/Info : Advanced Audio Codec
Format profile : HE-AAC / LC
Format settings : Implicit
Codec ID : A_AAC-2
Duration : 42 min 18 s
Bit rate : 127 kb/s
Channel(s) : 2 channels
Channel positions : Front: L R
Sampling rate : 48.0 kHz / 24.0 kHz
Frame rate : 23.438 FPS (1024 SPF)
Compression mode : Lossy
Stream size : 38.4 MiB (3%)
Language : English
Default : Yes
Forced : No

Text
ID : 3
Format : UTF-8
Codec ID : S_TEXT/UTF8
Codec ID/Info : UTF-8 Plain Text
Duration : 42 min 5 s
Bit rate : 106 b/s
Count of elements : 834
Stream size : 32.7 KiB (0%)
Language : English
Default : No
Forced : No





Lone Star Law S07E04


Lone Star Law S07E04


Lone Star Law S07E04


Lone Star Law S07E04


Lone Star Law S07E04

All episodes