Index
# A B C D E F G H I J K L M N O P Q R S T U V W Y Z
Tags
Language
Tags

Featured TV Shows


Los Espookys S01E04

Posted By: Tavaz
720p (HD) / WEBRip IMDb
Los Espookys S01E04

Los Espookys S01E04
WEBRip | MKV | 1280x720 | English | H264 @ 5704 kbps | E-AC-3 @ 640 kbps | 27 min 30 s | 1.22 GiB
Subtitles: English
Genre: Comedy


A group of friends turn their love for horror into a peculiar business, providing horror to those who need it, in a dreamy Latin American country where the strange and eerie are just part of daily life.

Los.Espookys.S01E04.El.espejo.maldito.720p.AMZN.WEB-DL.DDP5.1.H.264-NTb.mkv (1.2 GB)



General
Unique ID : 329416212457640581132742640052980558457 (0xF7D34138DC69712814519A7FC2922A79)
Complete name : ./Los.Espookys.S01E04.El.espejo.maldito.720p.AMZN.WEB-DL.DDP5.1.H.264-NTb.mkv
Format : Matroska
Format version : Version 4 / Version 2
File size : 1.22 GiB
Duration : 27 min 30 s
Overall bit rate : 6 347 kb/s
Encoded date : UTC 2019-07-06 11:00:23
Writing application : mkvmerge v32.0.0 ('Astral Progressions') 64-bit
Writing library : libebml v1.3.7 + libmatroska v1.5.0

Video
ID : 1
Format : AVC
Format/Info : Advanced Video Codec
Format profile : High@L3.1
Format settings : CABAC / 4 Ref Frames
Format settings, CABAC : Yes
Format settings, RefFrames : 4 frames
Codec ID : V_MPEG4/ISO/AVC
Duration : 27 min 30 s
Bit rate mode : Constant
Bit rate : 5 705 kb/s
Nominal bit rate : 6 000 kb/s
Width : 1 280 pixels
Height : 720 pixels
Display aspect ratio : 16:9
Frame rate mode : Constant
Frame rate : 23.976 (24000/1001) FPS
Color space : YUV
Chroma subsampling : 4:2:0
Bit depth : 8 bits
Scan type : Progressive
Bits/(Pixel*Frame) : 0.258
Stream size : 1.10 GiB (90%)
Default : Yes
Forced : No
Color range : Limited
Color primaries : BT.709
Transfer characteristics : BT.709
Matrix coefficients : BT.709

Audio
ID : 2
Format : E-AC-3
Format/Info : Enhanced Audio Coding 3
Format settings, Endianness : Big
Codec ID : A_EAC3
Duration : 27 min 30 s
Bit rate mode : Constant
Bit rate : 640 kb/s
Channel(s) : 6 channels
Channel positions : Front: L C R, Side: L R, LFE
Sampling rate : 48.0 kHz
Frame rate : 187.500 FPS (256 SPF)
Compression mode : Lossy
Delay relative to video : 28 ms
Stream size : 126 MiB (10%)
Language : English
Service kind : Complete Main
Default : Yes
Forced : No

Text
ID : 3
Format : UTF-8
Codec ID : S_TEXT/UTF8
Codec ID/Info : UTF-8 Plain Text
Duration : 25 min 26 s
Bit rate : 43 b/s
Count of elements : 264
Stream size : 8.05 KiB (0%)
Title : SDH
Language : English
Default : No
Forced : No





Los Espookys S01E04


Los Espookys S01E04


Los Espookys S01E04


Los Espookys S01E04


Los Espookys S01E04

All episodes