Index
# A B C D E F G H I J K L M N O P Q R S T U V W Y Z
Tags
Language
Tags

Featured TV Shows


Los Espookys S01E06

Posted By: Tavaz
1080p (FullHD) / WEBRip IMDb
Los Espookys S01E06

Los Espookys S01E06
WEBRip | MKV | 1920x1080 | English | H264 @ 10000 kbps | E-AC-3 @ 640 kbps | 28 min 45 s | 2.08 GiB
Subtitles: English
Genre: Comedy


A group of friends turn their love for horror into a peculiar business, providing horror to those who need it, in a dreamy Latin American country where the strange and eerie are just part of daily life.

Los.Espookys.S01E06.El.sueno.falso.1080p.AMZN.WEB-DL.DDP5.1.H.264-NTb.mkv (2.1 GB)



General
Unique ID : 280438981723433385214664400977372499973 (0xD2FA954FB4A8F5D81D9DB720B9EDD005)
Complete name : ./Los.Espookys.S01E06.El.sueno.falso.1080p.AMZN.WEB-DL.DDP5.1.H.264-NTb.mkv
Format : Matroska
Format version : Version 4 / Version 2
File size : 2.08 GiB
Duration : 28 min 45 s
Overall bit rate : 10.4 Mb/s
Encoded date : UTC 2019-07-20 13:32:08
Writing application : mkvmerge v32.0.0 ('Astral Progressions') 64-bit
Writing library : libebml v1.3.7 + libmatroska v1.5.0

Video
ID : 1
Format : AVC
Format/Info : Advanced Video Codec
Format profile : High@L4
Format settings : CABAC / 4 Ref Frames
Format settings, CABAC : Yes
Format settings, RefFrames : 4 frames
Codec ID : V_MPEG4/ISO/AVC
Duration : 28 min 45 s
Bit rate mode : Constant
Bit rate : 10 000 kb/s
Width : 1 920 pixels
Height : 1 080 pixels
Display aspect ratio : 16:9
Frame rate mode : Constant
Frame rate : 23.976 (24000/1001) FPS
Color space : YUV
Chroma subsampling : 4:2:0
Bit depth : 8 bits
Scan type : Progressive
Bits/(Pixel*Frame) : 0.201
Stream size : 1.95 GiB (94%)
Default : Yes
Forced : No
Color range : Limited
Color primaries : BT.709
Transfer characteristics : BT.709
Matrix coefficients : BT.709

Audio
ID : 2
Format : E-AC-3
Format/Info : Enhanced Audio Coding 3
Format settings, Endianness : Big
Codec ID : A_EAC3
Duration : 28 min 45 s
Bit rate mode : Constant
Bit rate : 640 kb/s
Channel(s) : 6 channels
Channel positions : Front: L C R, Side: L R, LFE
Sampling rate : 48.0 kHz
Frame rate : 187.500 FPS (256 SPF)
Compression mode : Lossy
Delay relative to video : 2 ms
Stream size : 132 MiB (6%)
Language : English
Service kind : Complete Main
Default : Yes
Forced : No

Text
ID : 3
Format : UTF-8
Codec ID : S_TEXT/UTF8
Codec ID/Info : UTF-8 Plain Text
Duration : 27 min 28 s
Bit rate : 38 b/s
Count of elements : 285
Stream size : 7.80 KiB (0%)
Title : SDH
Language : English
Default : No
Forced : No





Los Espookys S01E06


Los Espookys S01E06


Los Espookys S01E06


Los Espookys S01E06


Los Espookys S01E06

All episodes