Featured TV Shows


Loudermilk S01E01

Posted By: Tavaz
SD / WEB-DL IMDb
Loudermilk S01E01

Loudermilk S01E01
WEB-DL | MKV | 960x540 | English | H264 @ 1228 kbps | E-AC-3 @ 224 kbps | 28 min 13 s | 294 MiB
Subtitles: English
Genre: Comedy

Sam Loudermilk is a recovering alcoholic and substance abuse counselor with an extremely bad attitude about, well, everything. He is unapologetically uncensored, and manages to piss off everyone in his life. Although he has his drinking under control, Loudermilk discovers that when your life is a complete mess, getting clean is the easy part.

9ecfc41faa9841dabed6f5e4c4fb1d7c.mkv (293.6 MB)



General
Unique ID : 128445868143504154892270727971450439059 (0x60A1C63D0CA130C2F10D812895C0C593)
Complete name : ./9ecfc41faa9841dabed6f5e4c4fb1d7c.mkv
Format : Matroska
Format version : Version 4 / Version 2
File size : 294 MiB
Duration : 28 min 13 s
Overall bit rate mode : Variable
Overall bit rate : 1 454 kb/s
Encoded date : UTC 2018-01-15 14:50:30
Writing application : mkvmerge v19.0.0 ('Brave Captain') 64-bit
Writing library : libebml v1.3.5 + libmatroska v1.4.8

Video
ID : 1
Format : AVC
Format/Info : Advanced Video Codec
Format profile : High@L3.1
Format settings : CABAC / 5 Ref Frames
Format settings, CABAC : Yes
Format settings, RefFrames : 5 frames
Codec ID : V_MPEG4/ISO/AVC
Duration : 28 min 13 s
Bit rate mode : Variable
Bit rate : 1 228 kb/s
Maximum bit rate : 2 995 kb/s
Width : 960 pixels
Height : 540 pixels
Display aspect ratio : 16:9
Frame rate mode : Constant
Frame rate : 23.976 (24000/1001) FPS
Color space : YUV
Chroma subsampling : 4:2:0
Bit depth : 8 bits
Scan type : Progressive
Bits/(Pixel*Frame) : 0.099
Stream size : 248 MiB (84%)
Default : Yes
Forced : No
Color range : Limited
Color primaries : BT.709
Transfer characteristics : BT.709
Matrix coefficients : BT.709

Audio
ID : 2
Format : E-AC-3
Format/Info : Enhanced Audio Coding 3
Format settings, Endianness : Big
Codec ID : A_EAC3
Duration : 28 min 13 s
Bit rate mode : Constant
Bit rate : 224 kb/s
Channel(s) : 2 channels
Channel positions : Front: L R
Sampling rate : 48.0 kHz
Frame rate : 187.500 FPS (256 SPF)
Compression mode : Lossy
Stream size : 45.2 MiB (15%)
Language : English
Service kind : Complete Main
Default : Yes
Forced : No

Text #1
ID : 3
Format : UTF-8
Codec ID : S_TEXT/UTF8
Codec ID/Info : UTF-8 Plain Text
Duration : 27 min 57 s
Bit rate : 92 b/s
Count of elements : 638
Stream size : 19.0 KiB (0%)
Language : English
Default : No
Forced : No

Text #2
ID : 4
Format : UTF-8
Codec ID : S_TEXT/UTF8
Codec ID/Info : UTF-8 Plain Text
Duration : 27 min 57 s
Bit rate : 95 b/s
Count of elements : 679
Stream size : 19.6 KiB (0%)
Title : SDH
Language : English
Default : No
Forced : No

Menu
00:00:00.000 : en:Szene 1
00:01:52.000 : en:Szene 2
00:01:58.000 : en:Szene 3
00:04:38.000 : en:Szene 4
00:05:58.000 : en:Szene 5
00:08:52.000 : en:Szene 6
00:10:59.000 : en:Szene 7
00:11:56.000 : en:Szene 8
00:14:30.000 : en:Szene 9
00:16:39.000 : en:Szene 10
00:17:40.000 : en:Szene 11
00:20:35.000 : en:Szene 12
00:23:02.000 : en:Szene 13
00:24:47.000 : en:Szene 14
00:27:28.000 : en:Szene 15





Loudermilk S01E01


Loudermilk S01E01


Loudermilk S01E01


Loudermilk S01E01


Loudermilk S01E01

All episodes