Featured TV Shows


Loudermilk S01E05

Posted By: Tavaz
720p (HD) / WEB-DL IMDb
Loudermilk S01E05

Loudermilk S01E05
WEB-DL | MKV | 1280x720 | English | H264 @ 3013 kbps | E-AC-3 @ 640 kbps | 29 min 35 s | 774 MiB
Subtitles: English
Genre: Comedy

Sam Loudermilk is a recovering alcoholic and substance abuse counselor with an extremely bad attitude about, well, everything. He is unapologetically uncensored, and manages to piss off everyone in his life. Although he has his drinking under control, Loudermilk discovers that when your life is a complete mess, getting clean is the easy part.

dcc50ef430c34d8bbf3a002931bd1156.mkv (773.7 MB)



General
Unique ID : 322379640796227355432178432044604154621 (0xF2880F7436A05FD448BB4B331ECD62FD)
Complete name : ./dcc50ef430c34d8bbf3a002931bd1156.mkv
Format : Matroska
Format version : Version 4 / Version 2
File size : 774 MiB
Duration : 29 min 35 s
Overall bit rate mode : Variable
Overall bit rate : 3 656 kb/s
Encoded date : UTC 2018-01-15 14:47:31
Writing application : mkvmerge v19.0.0 ('Brave Captain') 64-bit
Writing library : libebml v1.3.5 + libmatroska v1.4.8

Video
ID : 1
Format : AVC
Format/Info : Advanced Video Codec
Format profile : High@L3.1
Format settings : CABAC / 5 Ref Frames
Format settings, CABAC : Yes
Format settings, RefFrames : 5 frames
Codec ID : V_MPEG4/ISO/AVC
Duration : 29 min 35 s
Bit rate mode : Variable
Bit rate : 3 014 kb/s
Maximum bit rate : 4 500 kb/s
Width : 1 280 pixels
Height : 720 pixels
Display aspect ratio : 16:9
Frame rate mode : Constant
Frame rate : 23.976 (24000/1001) FPS
Color space : YUV
Chroma subsampling : 4:2:0
Bit depth : 8 bits
Scan type : Progressive
Bits/(Pixel*Frame) : 0.136
Stream size : 638 MiB (82%)
Default : Yes
Forced : No
Color range : Limited
Color primaries : BT.709
Transfer characteristics : BT.709
Matrix coefficients : BT.709

Audio
ID : 2
Format : E-AC-3
Format/Info : Enhanced Audio Coding 3
Format settings, Endianness : Big
Codec ID : A_EAC3
Duration : 29 min 35 s
Bit rate mode : Constant
Bit rate : 640 kb/s
Channel(s) : 6 channels
Channel positions : Front: L C R, Side: L R, LFE
Sampling rate : 48.0 kHz
Frame rate : 187.500 FPS (256 SPF)
Compression mode : Lossy
Stream size : 135 MiB (18%)
Language : English
Service kind : Complete Main
Default : Yes
Forced : No

Text #1
ID : 3
Format : UTF-8
Codec ID : S_TEXT/UTF8
Codec ID/Info : UTF-8 Plain Text
Duration : 29 min 21 s
Bit rate : 101 b/s
Count of elements : 719
Stream size : 21.8 KiB (0%)
Language : English
Default : No
Forced : No

Text #2
ID : 4
Format : UTF-8
Codec ID : S_TEXT/UTF8
Codec ID/Info : UTF-8 Plain Text
Duration : 29 min 23 s
Bit rate : 104 b/s
Count of elements : 755
Stream size : 22.4 KiB (0%)
Title : SDH
Language : English
Default : No
Forced : No

Menu
00:00:00.000 : en:Was bisher geschah
00:00:29.000 : en:Szene 2
00:02:37.000 : en:Titelsequenz
00:02:43.000 : en:Szene 4
00:06:59.000 : en:Szene 5
00:12:11.000 : en:Szene 6
00:13:42.000 : en:Szene 7
00:15:14.000 : en:Szene 8
00:16:11.000 : en:Szene 9
00:18:49.000 : en:Szene 10
00:20:17.000 : en:Szene 11
00:21:19.000 : en:Szene 12
00:23:47.000 : en:Szene 13
00:26:22.000 : en:Szene 14
00:28:49.000 : en:Abspann





Loudermilk S01E05


Loudermilk S01E05


Loudermilk S01E05


Loudermilk S01E05


Loudermilk S01E05

All episodes