Featured TV Shows


Love S03E04

Posted By: Tavaz
1080p (FullHD) / WEBRip IMDb
Love S03E04

Love S03E04
WEBRip | MKV | 1920x1080 | English | H264 @ 24960 kbps | AC-3 @ 384 kbps | 30 min 12 s | 5.35 GiB
Subtitles: German, Italian, Spanish, French, English
Genre: Comedy, Drama

Rebellious Mickey and good-natured Gus navigate the thrills and agonies of modern relationships.

292ee764b0b44e80b7a5959319b177af.mkv (5.3 GB)



General
Unique ID : 338995142906935835654495374739100784376 (0xFF0816F4C91456D97A319A6FB725D6F8)
Complete name : ./292ee764b0b44e80b7a5959319b177af.mkv
Format : Matroska
Format version : Version 4 / Version 2
File size : 5.35 GiB
Duration : 30 min 12 s
Overall bit rate : 25.3 Mb/s
Encoded date : UTC 2018-03-10 01:49:13
Writing application : mkvmerge v19.0.0 ('Brave Captain') 64-bit
Writing library : libebml v1.3.5 + libmatroska v1.4.8

Video
ID : 1
Format : AVC
Format/Info : Advanced Video Codec
Format profile : High@L4.1
Format settings : CABAC / 4 Ref Frames
Format settings, CABAC : Yes
Format settings, RefFrames : 4 frames
Codec ID : V_MPEG4/ISO/AVC
Duration : 30 min 12 s
Bit rate : 25.0 Mb/s
Width : 1 920 pixels
Height : 1 080 pixels
Display aspect ratio : 16:9
Frame rate mode : Constant
Frame rate : 23.976 (24000/1001) FPS
Color space : YUV
Chroma subsampling : 4:2:0
Bit depth : 8 bits
Scan type : Progressive
Bits/(Pixel*Frame) : 0.502
Stream size : 5.27 GiB (98%)
Writing library : x264 core 152 r2851kMod ba24899
Encoding settings : cabac=1 / ref=4 / deblock=1:-3:-3 / analyse=0x3:0x133 / me=umh / subme=10 / psy=1 / fade_compensate=0.00 / psy_rd=1.00:0.00 / mixed_ref=1 / me_range=48 / chroma_me=1 / trellis=2 / 8x8dct=1 / cqm=0 / deadzone=21,11 / fast_pskip=0 / chroma_qp_offset=-2 / threads=24 / lookahead_threads=4 / sliced_threads=0 / nr=0 / decimate=0 / interlaced=0 / bluray_compat=0 / constrained_intra=0 / bframes=8 / b_pyramid=2 / b_adapt=2 / b_bias=0 / direct=3 / weightb=1 / open_gop=0 / weightp=2 / keyint=250 / keyint_min=23 / scenecut=40 / intra_refresh=0 / rc=crf / mbtree=0 / crf=17.0000 / qcomp=0.60 / qpmin=0 / qpmax=69 / qpstep=4 / ip_ratio=1.30 / pb_ratio=1.20 / aq=3:0.80
Language : English
Default : Yes
Forced : No

Audio
ID : 2
Format : AC-3
Format/Info : Audio Coding 3
Format settings, Endianness : Big
Codec ID : A_AC3
Duration : 30 min 12 s
Bit rate mode : Constant
Bit rate : 384 kb/s
Channel(s) : 6 channels
Channel positions : Front: L C R, Side: L R, LFE
Sampling rate : 48.0 kHz
Frame rate : 31.250 FPS (1536 SPF)
Bit depth : 16 bits
Compression mode : Lossy
Stream size : 83.0 MiB (2%)
Language : English
Service kind : Complete Main
Default : Yes
Forced : No

Text #1
ID : 3
Format : UTF-8
Codec ID : S_TEXT/UTF8
Codec ID/Info : UTF-8 Plain Text
Duration : 28 min 50 s
Bit rate : 78 b/s
Count of elements : 454
Stream size : 16.6 KiB (0%)
Language : English
Default : No
Forced : No

Text #2
ID : 4
Format : UTF-8
Codec ID : S_TEXT/UTF8
Codec ID/Info : UTF-8 Plain Text
Duration : 28 min 50 s
Bit rate : 83 b/s
Count of elements : 474
Stream size : 17.6 KiB (0%)
Title : SDH
Language : English
Default : No
Forced : No

Text #3
ID : 5
Format : UTF-8
Codec ID : S_TEXT/UTF8
Codec ID/Info : UTF-8 Plain Text
Duration : 27 min 37 s
Bit rate : 70 b/s
Count of elements : 406
Stream size : 14.3 KiB (0%)
Language : German
Default : No
Forced : No

Text #4
ID : 6
Format : UTF-8
Codec ID : S_TEXT/UTF8
Codec ID/Info : UTF-8 Plain Text
Duration : 27 min 37 s
Bit rate : 67 b/s
Count of elements : 422
Stream size : 13.7 KiB (0%)
Language : Spanish
Default : No
Forced : No

Text #5
ID : 7
Format : UTF-8
Codec ID : S_TEXT/UTF8
Codec ID/Info : UTF-8 Plain Text
Duration : 27 min 37 s
Bit rate : 70 b/s
Count of elements : 409
Stream size : 14.3 KiB (0%)
Language : French
Default : No
Forced : No

Text #6
ID : 8
Format : UTF-8
Codec ID : S_TEXT/UTF8
Codec ID/Info : UTF-8 Plain Text
Duration : 27 min 37 s
Bit rate : 66 b/s
Count of elements : 424
Stream size : 13.4 KiB (0%)
Language : Italian
Default : No
Forced : No





Love S03E04


Love S03E04


Love S03E04


Love S03E04


Love S03E04

All episodes