Featured TV Shows


Love & Hip Hop S08E11

Posted By: Tavaz
1080p (FullHD) / WEBRip IMDb
Love & Hip Hop S08E11

Love & Hip Hop S08E11
WEBRip | MKV | 1280x720 | English | H264 @ 4897 kbps | AAC @ 127 kbps | 55 min 49 s | 1.96 GiB

Love & Hip Hop is an American reality television series on VH1. The series debuted on March 14, 2011. The series follows the lives of several women who are involved with hip hop.

afbda9ba38db4109bf9de6a6ec924417.mkv (2.0 GB)



General
Unique ID : 171994918900121749979988791529618896218 (0x81650436ABE306AF467A9693FE65755A)
Complete name : ./afbda9ba38db4109bf9de6a6ec924417.mkv
Format : Matroska
Format version : Version 4 / Version 2
File size : 1.96 GiB
Duration : 55 min 49 s
Overall bit rate : 5 027 kb/s
Encoded date : UTC 2018-01-09 11:56:39
Writing application : mkvmerge v8.8.0 ('Wind at my back') 64bit
Writing library : libebml v1.3.3 + libmatroska v1.4.4

Video
ID : 1
Format : AVC
Format/Info : Advanced Video Codec
Format profile : High@L4
Format settings : CABAC / 4 Ref Frames
Format settings, CABAC : Yes
Format settings, RefFrames : 4 frames
Codec ID : V_MPEG4/ISO/AVC
Duration : 55 min 48 s
Bit rate : 4 897 kb/s
Nominal bit rate : 3 404 kb/s
Width : 1 280 pixels
Original width : 1 920 pixels
Height : 720 pixels
Original height : 1 080 pixels
Display aspect ratio : 16:9
Frame rate mode : Constant
Frame rate : 29.970 (30000/1001) FPS
Color space : YUV
Chroma subsampling : 4:2:0
Bit depth : 8 bits
Scan type : Progressive
Bits/(Pixel*Frame) : 0.177
Stream size : 1.91 GiB (97%)
Writing library : x264 core 148
Encoding settings : cabac=1 / ref=4 / deblock=1:0:0 / analyse=0x3:0x113 / me=umh / subme=10 / psy=1 / psy_rd=1.00:0.15 / mixed_ref=1 / me_range=32 / chroma_me=1 / trellis=2 / 8x8dct=1 / cqm=0 / deadzone=21,11 / fast_pskip=1 / chroma_qp_offset=-3 / threads=24 / lookahead_threads=6 / sliced_threads=0 / nr=0 / decimate=1 / interlaced=0 / bluray_compat=0 / constrained_intra=0 / bframes=3 / b_pyramid=0 / b_adapt=2 / b_bias=0 / direct=3 / weightb=1 / open_gop=0 / weightp=2 / keyint=60 / keyint_min=6 / scenecut=0 / intra_refresh=0 / rc_lookahead=60 / rc=crf / mbtree=1 / crf=19.0 / qcomp=0.75 / qpmin=10 / qpmax=51 / qpstep=4 / vbv_maxrate=5000 / vbv_bufsize=10000 / crf_max=0.0 / nal_hrd=none / filler=0 / ip_ratio=1.40 / aq=1:0.80
Default : Yes
Forced : No

Audio
ID : 2
Format : AAC
Format/Info : Advanced Audio Codec
Format profile : HE-AAC / LC
Format settings : Implicit
Codec ID : A_AAC-2
Duration : 55 min 49 s
Bit rate : 128 kb/s
Channel(s) : 2 channels
Channel positions : Front: L R
Sampling rate : 48.0 kHz / 24.0 kHz
Frame rate : 23.438 FPS (1024 SPF)
Compression mode : Lossy
Stream size : 51.1 MiB (3%)
Default : Yes
Forced : No





Love & Hip Hop S08E11


Love & Hip Hop S08E11


Love & Hip Hop S08E11


Love & Hip Hop S08E11


Love & Hip Hop S08E11

All episodes