Featured TV Shows


Lupin S02E01

Posted By: MegoNecia
1080p (FullHD) / WEB-DL IMDb
Lupin S02E01

Lupin S02E01
WEB-DL | MKV | 1920x1080 | Türkçe / Français | H264 @ 3192 kbps | E-AC-3 @ 640 kbps | 42 min 34 s | 1.37 GiB
Subtitles: ภาษาไทย, Hrvatski, Français, tiếng Việt, Español, Magyar, 日本語, עברית, 한국어, Русский, Ελληνικά, Nederlands, Dansk, Bahasa Indonesia, Bokmål, 中文, Suomi, Polski, Türkçe, English, हिन्दी, Română, العربية, Deutsch, Українська, Svenska, Italiano, Português, Čeština
Genre: Crime, Drama, Mystery


Inspired by the adventures of Arsène Lupin, gentleman thief Assane Diop sets out to avenge his father for an injustice inflicted by a wealthy family.

fbe62ecefc20fb297e479602552590cf.mkv (1.4 GB)



General
Unique ID : 48607288388876311929347138131170656532 (0x24916C584CF4609B8D22564EF6AF8114)
Complete name : ./fbe62ecefc20fb297e479602552590cf.mkv
Format : Matroska
Format version : Version 4 / Version 2
File size : 1.37 GiB
Duration : 42 min 34 s
Overall bit rate mode : Variable
Overall bit rate : 4 599 kb/s
Encoded date : UTC 2021-06-11 08:06:29
Writing application : mkvmerge v50.0.0 ('Awakenings') 64-bit
Writing library : libebml v1.4.0 + libmatroska v1.6.2

Video
ID : 1
Format : AVC
Format/Info : Advanced Video Codec
Format profile : Main@L4
Format settings : CABAC / 3 Ref Frames
Format settings, CABAC : Yes
Format settings, RefFrames : 3 frames
Codec ID : V_MPEG4/ISO/AVC
Duration : 42 min 34 s
Bit rate mode : Variable
Bit rate : 3 192 kb/s
Maximum bit rate : 7 665 kb/s
Width : 1 920 pixels
Height : 1 080 pixels
Display aspect ratio : 16:9
Frame rate mode : Constant
Frame rate : 25.000 FPS
Color space : YUV
Chroma subsampling : 4:2:0
Bit depth : 8 bits
Scan type : Progressive
Bits/(Pixel*Frame) : 0.062
Stream size : 1 010 MiB (72%)
Writing library : x264 core 148 r2722 1b0121b
Encoding settings : cabac=1 / ref=3 / deblock=1:0:0 / analyse=0x1:0x111 / me=umh / subme=10 / psy=1 / psy_rd=1.00:0.00 / mixed_ref=1 / me_range=24 / chroma_me=1 / trellis=2 / 8x8dct=0 / cqm=0 / deadzone=21,11 / fast_pskip=1 / chroma_qp_offset=-2 / threads=8 / lookahead_threads=1 / sliced_threads=0 / nr=0 / decimate=1 / interlaced=0 / bluray_compat=0 / stitchable=1 / constrained_intra=0 / bframes=2 / b_pyramid=0 / b_adapt=2 / b_bias=0 / direct=3 / weightb=1 / open_gop=0 / weightp=2 / keyint=250 / keyint_min=25 / scenecut=0 / intra_refresh=0 / rc_lookahead=50 / rc=2pass / mbtree=1 / bitrate=3192 / ratetol=1.0 / qcomp=0.50 / qpmin=6 / qpmax=51 / qpstep=4 / cplxblur=20.0 / qblur=0.5 / vbv_maxrate=7665 / vbv_bufsize=10220 / nal_hrd=vbr / filler=0 / ip_ratio=1.40 / aq=1:1.00
Default : Yes
Forced : No

Audio #1
ID : 2
Format : E-AC-3
Format/Info : Enhanced Audio Coding 3
Format settings, Endianness : Big
Codec ID : A_EAC3
Duration : 42 min 34 s
Bit rate mode : Constant
Bit rate : 640 kb/s
Channel(s) : 6 channels
Channel positions : Front: L C R, Side: L R, LFE
Sampling rate : 48.0 kHz
Frame rate : 187.500 FPS (256 SPF)
Compression mode : Lossy
Stream size : 195 MiB (14%)
Title : French
Language : French
Service kind : Complete Main
Default : No
Forced : No

Audio #2
ID : 3
Format : E-AC-3
Format/Info : Enhanced Audio Coding 3
Format settings, Endianness : Big
Codec ID : A_EAC3
Duration : 42 min 34 s
Bit rate mode : Constant
Bit rate : 640 kb/s
Channel(s) : 6 channels
Channel positions : Front: L C R, Side: L R, LFE
Sampling rate : 48.0 kHz
Frame rate : 187.500 FPS (256 SPF)
Compression mode : Lossy
Stream size : 195 MiB (14%)
Title : Turkish
Language : Turkish
Service kind : Complete Main
Default : No
Forced : No

Text #1
ID : 4
Format : UTF-8
Codec ID : S_TEXT/UTF8
Codec ID/Info : UTF-8 Plain Text
Duration : 40 min 57 s
Bit rate : 2 b/s
Count of elements : 18
Stream size : 891 Bytes (0%)
Title : Arabic [Forced]
Language : Arabic
Default : No
Forced : Yes

Text #2
ID : 5
Format : UTF-8
Codec ID : S_TEXT/UTF8
Codec ID/Info : UTF-8 Plain Text
Duration : 40 min 57 s
Bit rate : 47 b/s
Count of elements : 291
Stream size : 14.3 KiB (0%)
Title : Arabic
Language : Arabic
Default : No
Forced : No

Text #3
ID : 6
Format : UTF-8
Codec ID : S_TEXT/UTF8
Codec ID/Info : UTF-8 Plain Text
Duration : 40 min 57 s
Bit rate : 1 b/s
Count of elements : 18
Stream size : 444 Bytes (0%)
Title : Brazilian Portuguese [Forced]
Language : Portuguese
Default : No
Forced : Yes

Text #4
ID : 7
Format : UTF-8
Codec ID : S_TEXT/UTF8
Codec ID/Info : UTF-8 Plain Text
Duration : 40 min 57 s
Bit rate : 21 b/s
Count of elements : 292
Stream size : 6.49 KiB (0%)
Title : Brazilian Portuguese
Language : Portuguese
Default : No
Forced : No

Text #5
ID : 8
Format : UTF-8
Codec ID : S_TEXT/UTF8
Codec ID/Info : UTF-8 Plain Text
Duration : 40 min 57 s
Bit rate : 1 b/s
Count of elements : 18
Stream size : 417 Bytes (0%)
Title : Czech [Forced]
Language : Czech
Default : No
Forced : Yes

Text #6
ID : 9
Format : UTF-8
Codec ID : S_TEXT/UTF8
Codec ID/Info : UTF-8 Plain Text
Duration : 40 min 57 s
Bit rate : 22 b/s
Count of elements : 291
Stream size : 6.77 KiB (0%)
Title : Czech
Language : Czech
Default : No
Forced : No

Text #7
ID : 10
Format : UTF-8
Codec ID : S_TEXT/UTF8
Codec ID/Info : UTF-8 Plain Text
Duration : 40 min 57 s
Bit rate : 21 b/s
Count of elements : 274
Stream size : 6.58 KiB (0%)
Title : Danish
Language : Danish
Default : No
Forced : No

Text #8
ID : 11
Format : UTF-8
Codec ID : S_TEXT/UTF8
Codec ID/Info : UTF-8 Plain Text
Duration : 40 min 57 s
Bit rate : 1 b/s
Count of elements : 18
Stream size : 446 Bytes (0%)
Title : German [Forced]
Language : German
Default : No
Forced : Yes

Text #9
ID : 12
Format : UTF-8
Codec ID : S_TEXT/UTF8
Codec ID/Info : UTF-8 Plain Text
Duration : 40 min 57 s
Bit rate : 22 b/s
Count of elements : 278
Stream size : 6.87 KiB (0%)
Title : German
Language : German
Default : No
Forced : No

Text #10
ID : 13
Format : UTF-8
Codec ID : S_TEXT/UTF8
Codec ID/Info : UTF-8 Plain Text
Duration : 40 min 57 s
Bit rate : 37 b/s
Count of elements : 289
Stream size : 11.1 KiB (0%)
Title : Greek
Language : Greek
Default : No
Forced : No

Text #11
ID : 14
Format : UTF-8
Codec ID : S_TEXT/UTF8
Codec ID/Info : UTF-8 Plain Text
Duration : 39 min 35 s
Bit rate : 38 b/s
Count of elements : 475
Stream size : 11.1 KiB (0%)
Title : English [SDH]
Language : English
Default : No
Forced : No

Text #12
ID : 15
Format : UTF-8
Codec ID : S_TEXT/UTF8
Codec ID/Info : UTF-8 Plain Text
Duration : 37 min 25 s
Bit rate : 1 b/s
Count of elements : 16
Stream size : 380 Bytes (0%)
Title : English [Forced]
Language : English
Default : No
Forced : Yes

Text #13
ID : 16
Format : UTF-8
Codec ID : S_TEXT/UTF8
Codec ID/Info : UTF-8 Plain Text
Duration : 39 min 10 s
Bit rate : 22 b/s
Count of elements : 295
Stream size : 6.59 KiB (0%)
Title : English
Language : English
Default : No
Forced : No

Text #14
ID : 17
Format : UTF-8
Codec ID : S_TEXT/UTF8
Codec ID/Info : UTF-8 Plain Text
Duration : 40 min 56 s
Bit rate : 1 b/s
Count of elements : 18
Stream size : 442 Bytes (0%)
Title : European Spanish [Forced]
Language : Spanish
Default : No
Forced : Yes

Text #15
ID : 18
Format : UTF-8
Codec ID : S_TEXT/UTF8
Codec ID/Info : UTF-8 Plain Text
Duration : 40 min 56 s
Bit rate : 22 b/s
Count of elements : 306
Stream size : 6.68 KiB (0%)
Title : European Spanish
Language : Spanish
Default : No
Forced : No

Text #16
ID : 19
Format : UTF-8
Codec ID : S_TEXT/UTF8
Codec ID/Info : UTF-8 Plain Text
Duration : 40 min 57 s
Bit rate : 21 b/s
Count of elements : 227
Stream size : 6.49 KiB (0%)
Title : Finnish
Language : Finnish
Default : No
Forced : No

Text #17
ID : 20
Format : UTF-8
Codec ID : S_TEXT/UTF8
Codec ID/Info : UTF-8 Plain Text
Duration : 39 min 30 s
Bit rate : 35 b/s
Count of elements : 431
Stream size : 10.4 KiB (0%)
Title : French [SDH]
Language : French
Default : No
Forced : No

Text #18
ID : 21
Format : UTF-8
Codec ID : S_TEXT/UTF8
Codec ID/Info : UTF-8 Plain Text
Duration : 10 min 12 s
Bit rate : 1 b/s
Count of elements : 3
Stream size : 96.0 Bytes (0%)
Title : French [Forced]
Language : French
Default : No
Forced : Yes

Text #19
ID : 22
Format : UTF-8
Codec ID : S_TEXT/UTF8
Codec ID/Info : UTF-8 Plain Text
Duration : 40 min 57 s
Bit rate : 39 b/s
Count of elements : 293
Stream size : 11.7 KiB (0%)
Title : Hebrew
Language : Hebrew
Default : No
Forced : No

Text #20
ID : 23
Format : UTF-8
Codec ID : S_TEXT/UTF8
Codec ID/Info : UTF-8 Plain Text
Duration : 40 min 53 s
Bit rate : 2 b/s
Count of elements : 15
Stream size : 632 Bytes (0%)
Title : Hindi [Forced]
Language : Hindi
Default : No
Forced : Yes

Text #21
ID : 24
Format : UTF-8
Codec ID : S_TEXT/UTF8
Codec ID/Info : UTF-8 Plain Text
Duration : 39 min 10 s
Bit rate : 21 b/s
Count of elements : 299
Stream size : 6.07 KiB (0%)
Title : Croatian
Language : Croatian
Default : No
Forced : No

Text #22
ID : 25
Format : UTF-8
Codec ID : S_TEXT/UTF8
Codec ID/Info : UTF-8 Plain Text
Duration : 40 min 57 s
Bit rate : 1 b/s
Count of elements : 17
Stream size : 413 Bytes (0%)
Title : Hungarian [Forced]
Language : Hungarian
Default : No
Forced : Yes

Text #23
ID : 26
Format : UTF-8
Codec ID : S_TEXT/UTF8
Codec ID/Info : UTF-8 Plain Text
Duration : 40 min 57 s
Bit rate : 22 b/s
Count of elements : 271
Stream size : 6.61 KiB (0%)
Title : Hungarian
Language : Hungarian
Default : No
Forced : No

Text #24
ID : 27
Format : UTF-8
Codec ID : S_TEXT/UTF8
Codec ID/Info : UTF-8 Plain Text
Duration : 40 min 57 s
Bit rate : 22 b/s
Count of elements : 292
Stream size : 6.77 KiB (0%)
Title : Indonesian
Language : Indonesian
Default : No
Forced : No

Text #25
ID : 28
Format : UTF-8
Codec ID : S_TEXT/UTF8
Codec ID/Info : UTF-8 Plain Text
Duration : 40 min 57 s
Bit rate : 1 b/s
Count of elements : 18
Stream size : 435 Bytes (0%)
Title : Italian [Forced]
Language : Italian
Default : No
Forced : Yes

Text #26
ID : 29
Format : UTF-8
Codec ID : S_TEXT/UTF8
Codec ID/Info : UTF-8 Plain Text
Duration : 40 min 57 s
Bit rate : 21 b/s
Count of elements : 288
Stream size : 6.48 KiB (0%)
Title : Italian
Language : Italian
Default : No
Forced : No

Text #27
ID : 30
Format : UTF-8
Codec ID : S_TEXT/UTF8
Codec ID/Info : UTF-8 Plain Text
Duration : 40 min 56 s
Bit rate : 1 b/s
Count of elements : 18
Stream size : 567 Bytes (0%)
Title : Japanese [Forced]
Language : Japanese
Default : No
Forced : Yes

Text #28
ID : 31
Format : UTF-8
Codec ID : S_TEXT/UTF8
Codec ID/Info : UTF-8 Plain Text
Duration : 40 min 56 s
Bit rate : 24 b/s
Count of elements : 345
Stream size : 7.29 KiB (0%)
Title : Japanese
Language : Japanese
Default : No
Forced : No

Text #29
ID : 32
Format : UTF-8
Codec ID : S_TEXT/UTF8
Codec ID/Info : UTF-8 Plain Text
Duration : 40 min 57 s
Bit rate : 30 b/s
Count of elements : 296
Stream size : 9.27 KiB (0%)
Title : Korean
Language : Korean
Default : No
Forced : No

Text #30
ID : 33
Format : UTF-8
Codec ID : S_TEXT/UTF8
Codec ID/Info : UTF-8 Plain Text
Duration : 40 min 57 s
Bit rate : 22 b/s
Count of elements : 285
Stream size : 6.66 KiB (0%)
Title : Malay
Language : Malay
Default : No
Forced : No

Text #31
ID : 34
Format : UTF-8
Codec ID : S_TEXT/UTF8
Codec ID/Info : UTF-8 Plain Text
Duration : 40 min 56 s
Bit rate : 21 b/s
Count of elements : 252
Stream size : 6.56 KiB (0%)
Title : Dutch
Language : Dutch
Default : No
Forced : No

Text #32
ID : 35
Format : UTF-8
Codec ID : S_TEXT/UTF8
Codec ID/Info : UTF-8 Plain Text
Duration : 40 min 57 s
Bit rate : 20 b/s
Count of elements : 269
Stream size : 6.01 KiB (0%)
Title : Norwegian Bokmal
Language : Norwegian Bokmal
Default : No
Forced : No

Text #33
ID : 36
Format : UTF-8
Codec ID : S_TEXT/UTF8
Codec ID/Info : UTF-8 Plain Text
Duration : 37 min 23 s
Bit rate : 0 b/s
Count of elements : 3
Stream size : 63.0 Bytes (0%)
Title : Polish [Forced]
Language : Polish
Default : No
Forced : Yes

Text #34
ID : 37
Format : UTF-8
Codec ID : S_TEXT/UTF8
Codec ID/Info : UTF-8 Plain Text
Duration : 40 min 56 s
Bit rate : 20 b/s
Count of elements : 290
Stream size : 6.12 KiB (0%)
Title : Polish
Language : Polish
Default : No
Forced : No

Text #35
ID : 38
Format : UTF-8
Codec ID : S_TEXT/UTF8
Codec ID/Info : UTF-8 Plain Text
Duration : 40 min 57 s
Bit rate : 22 b/s
Count of elements : 283
Stream size : 6.62 KiB (0%)
Title : Portuguese
Language : Portuguese
Default : No
Forced : No

Text #36
ID : 39
Format : UTF-8
Codec ID : S_TEXT/UTF8
Codec ID/Info : UTF-8 Plain Text
Duration : 40 min 57 s
Bit rate : 24 b/s
Count of elements : 291
Stream size : 7.34 KiB (0%)
Title : Romanian
Language : Romanian
Default : No
Forced : No

Text #37
ID : 40
Format : UTF-8
Codec ID : S_TEXT/UTF8
Codec ID/Info : UTF-8 Plain Text
Duration : 40 min 57 s
Bit rate : 2 b/s
Count of elements : 18
Stream size : 734 Bytes (0%)
Title : Russian [Forced]
Language : Russian
Default : No
Forced : Yes

Text #38
ID : 41
Format : UTF-8
Codec ID : S_TEXT/UTF8
Codec ID/Info : UTF-8 Plain Text
Duration : 40 min 57 s
Bit rate : 35 b/s
Count of elements : 293
Stream size : 10.7 KiB (0%)
Title : Russian
Language : Russian
Default : No
Forced : No

Text #39
ID : 42
Format : UTF-8
Codec ID : S_TEXT/UTF8
Codec ID/Info : UTF-8 Plain Text
Duration : 40 min 57 s
Bit rate : 1 b/s
Count of elements : 17
Stream size : 436 Bytes (0%)
Title : Spanish [Forced]
Language : Spanish
Default : No
Forced : Yes

Text #40
ID : 43
Format : UTF-8
Codec ID : S_TEXT/UTF8
Codec ID/Info : UTF-8 Plain Text
Duration : 40 min 57 s
Bit rate : 22 b/s
Count of elements : 290
Stream size : 6.85 KiB (0%)
Title : Spanish
Language : Spanish
Default : No
Forced : No

Text #41
ID : 44
Format : UTF-8
Codec ID : S_TEXT/UTF8
Codec ID/Info : UTF-8 Plain Text
Duration : 40 min 57 s
Bit rate : 23 b/s
Count of elements : 267
Stream size : 6.92 KiB (0%)
Title : Swedish
Language : Swedish
Default : No
Forced : No

Text #42
ID : 45
Format : UTF-8
Codec ID : S_TEXT/UTF8
Codec ID/Info : UTF-8 Plain Text
Duration : 40 min 57 s
Bit rate : 3 b/s
Count of elements : 20
Stream size : 1.17 KiB (0%)
Title : Thai [Forced]
Language : Thai
Default : No
Forced : Yes

Text #43
ID : 46
Format : UTF-8
Codec ID : S_TEXT/UTF8
Codec ID/Info : UTF-8 Plain Text
Duration : 40 min 57 s
Bit rate : 62 b/s
Count of elements : 310
Stream size : 18.8 KiB (0%)
Title : Thai
Language : Thai
Default : No
Forced : No

Text #44
ID : 47
Format : UTF-8
Codec ID : S_TEXT/UTF8
Codec ID/Info : UTF-8 Plain Text
Duration : 40 min 57 s
Bit rate : 1 b/s
Count of elements : 18
Stream size : 445 Bytes (0%)
Title : Turkish [Forced]
Language : Turkish
Default : No
Forced : Yes

Text #45
ID : 48
Format : UTF-8
Codec ID : S_TEXT/UTF8
Codec ID/Info : UTF-8 Plain Text
Duration : 40 min 57 s
Bit rate : 22 b/s
Count of elements : 288
Stream size : 6.79 KiB (0%)
Title : Turkish
Language : Turkish
Default : No
Forced : No

Text #46
ID : 49
Format : UTF-8
Codec ID : S_TEXT/UTF8
Codec ID/Info : UTF-8 Plain Text
Duration : 40 min 57 s
Bit rate : 34 b/s
Count of elements : 293
Stream size : 10.3 KiB (0%)
Title : Ukrainian
Language : Ukrainian
Default : No
Forced : No

Text #47
ID : 50
Format : UTF-8
Codec ID : S_TEXT/UTF8
Codec ID/Info : UTF-8 Plain Text
Duration : 40 min 57 s
Bit rate : 31 b/s
Count of elements : 293
Stream size : 9.33 KiB (0%)
Title : Vietnamese
Language : Vietnamese
Default : No
Forced : No

Text #48
ID : 51
Format : UTF-8
Codec ID : S_TEXT/UTF8
Codec ID/Info : UTF-8 Plain Text
Duration : 40 min 57 s
Bit rate : 28 b/s
Count of elements : 294
Stream size : 8.46 KiB (0%)
Title : Chinese Simplified
Language : Chinese
Default : No
Forced : No

Text #49
ID : 52
Format : UTF-8
Codec ID : S_TEXT/UTF8
Codec ID/Info : UTF-8 Plain Text
Duration : 40 min 56 s
Bit rate : 26 b/s
Count of elements : 330
Stream size : 8.07 KiB (0%)
Title : Chinese Traditional
Language : Chinese
Default : No
Forced : No





Lupin S02E01


Lupin S02E01


Lupin S02E01


Lupin S02E01


Lupin S02E01

All episodes