Featured TV Shows


Lupin S02E04

Posted By: MegoNecia
1080p (FullHD) / WEB-DL IMDb
Lupin S02E04

Lupin S02E04
WEB-DL | MKV | 1920x1080 | Türkçe / Français | H264 @ 4161 kbps | E-AC-3 @ 640 kbps | 47 min 17 s | 1.80 GiB
Subtitles: ภาษาไทย, Hrvatski, Français, tiếng Việt, Español, Magyar, 日本語, עברית, 한국어, Русский, Ελληνικά, Nederlands, Dansk, Bahasa Indonesia, Bokmål, 中文, Suomi, Polski, Türkçe, English, हिन्दी, Română, العربية, Deutsch, Українська, Svenska, Italiano, Português, Čeština
Genre: Crime, Drama, Mystery


Inspired by the adventures of Arsène Lupin, gentleman thief Assane Diop sets out to avenge his father for an injustice inflicted by a wealthy family.

39c2a5f22ca00d07616b9f86a5de3575.mkv (1.8 GB)



General
Unique ID : 99688739939118978874936882491033956576 (0x4AFF5A5A0F37E9682F30E7255304B0E0)
Complete name : ./39c2a5f22ca00d07616b9f86a5de3575.mkv
Format : Matroska
Format version : Version 4 / Version 2
File size : 1.80 GiB
Duration : 47 min 17 s
Overall bit rate mode : Variable
Overall bit rate : 5 447 kb/s
Encoded date : UTC 2021-06-11 08:08:39
Writing application : mkvmerge v50.0.0 ('Awakenings') 64-bit
Writing library : libebml v1.4.0 + libmatroska v1.6.2

Video
ID : 1
Format : AVC
Format/Info : Advanced Video Codec
Format profile : High@L4
Format settings : CABAC / 4 Ref Frames
Format settings, CABAC : Yes
Format settings, RefFrames : 4 frames
Codec ID : V_MPEG4/ISO/AVC
Duration : 47 min 16 s
Bit rate mode : Variable
Bit rate : 4 161 kb/s
Maximum bit rate : 20.0 Mb/s
Width : 1 920 pixels
Height : 1 080 pixels
Display aspect ratio : 16:9
Frame rate mode : Constant
Frame rate : 25.000 FPS
Color space : YUV
Chroma subsampling : 4:2:0
Bit depth : 8 bits
Scan type : Progressive
Bits/(Pixel*Frame) : 0.080
Stream size : 1.37 GiB (76%)
Writing library : x264 core 148 r2722 1b0121b
Encoding settings : cabac=1 / ref=4 / deblock=1:0:0 / analyse=0x3:0x111 / me=umh / subme=10 / psy=1 / psy_rd=1.00:0.00 / mixed_ref=1 / me_range=120 / chroma_me=1 / trellis=2 / 8x8dct=1 / cqm=0 / deadzone=21,11 / fast_pskip=1 / chroma_qp_offset=-2 / threads=8 / lookahead_threads=2 / sliced_threads=0 / nr=0 / decimate=1 / interlaced=0 / bluray_compat=0 / stitchable=1 / constrained_intra=0 / bframes=16 / b_pyramid=2 / b_adapt=2 / b_bias=0 / direct=3 / weightb=1 / open_gop=0 / weightp=2 / keyint=250 / keyint_min=126 / scenecut=0 / intra_refresh=0 / rc_lookahead=250 / rc=crf / mbtree=1 / crf=18.0 / qcomp=0.50 / qpmin=6 / qpmax=51 / qpstep=4 / vbv_maxrate=20000 / vbv_bufsize=25000 / crf_max=0.0 / nal_hrd=vbr / filler=0 / ip_ratio=1.40 / aq=1:0.80
Default : Yes
Forced : No

Audio #1
ID : 2
Format : E-AC-3
Format/Info : Enhanced Audio Coding 3
Format settings, Endianness : Big
Codec ID : A_EAC3
Duration : 47 min 17 s
Bit rate mode : Constant
Bit rate : 640 kb/s
Channel(s) : 6 channels
Channel positions : Front: L C R, Side: L R, LFE
Sampling rate : 48.0 kHz
Frame rate : 187.500 FPS (256 SPF)
Compression mode : Lossy
Stream size : 216 MiB (12%)
Title : French
Language : French
Service kind : Complete Main
Default : No
Forced : No

Audio #2
ID : 3
Format : E-AC-3
Format/Info : Enhanced Audio Coding 3
Format settings, Endianness : Big
Codec ID : A_EAC3
Duration : 47 min 17 s
Bit rate mode : Constant
Bit rate : 640 kb/s
Channel(s) : 6 channels
Channel positions : Front: L C R, Side: L R, LFE
Sampling rate : 48.0 kHz
Frame rate : 187.500 FPS (256 SPF)
Compression mode : Lossy
Stream size : 216 MiB (12%)
Title : Turkish
Language : Turkish
Service kind : Complete Main
Default : No
Forced : No

Text #1
ID : 4
Format : UTF-8
Codec ID : S_TEXT/UTF8
Codec ID/Info : UTF-8 Plain Text
Duration : 45 min 23 s
Bit rate : 3 b/s
Count of elements : 21
Stream size : 1.18 KiB (0%)
Title : Arabic [Forced]
Language : Arabic
Default : No
Forced : Yes

Text #2
ID : 5
Format : UTF-8
Codec ID : S_TEXT/UTF8
Codec ID/Info : UTF-8 Plain Text
Duration : 45 min 23 s
Bit rate : 84 b/s
Count of elements : 503
Stream size : 27.9 KiB (0%)
Title : Arabic
Language : Arabic
Default : No
Forced : No

Text #3
ID : 6
Format : UTF-8
Codec ID : S_TEXT/UTF8
Codec ID/Info : UTF-8 Plain Text
Duration : 45 min 23 s
Bit rate : 1 b/s
Count of elements : 18
Stream size : 529 Bytes (0%)
Title : Brazilian Portuguese [Forced]
Language : Portuguese
Default : No
Forced : Yes

Text #4
ID : 7
Format : UTF-8
Codec ID : S_TEXT/UTF8
Codec ID/Info : UTF-8 Plain Text
Duration : 45 min 23 s
Bit rate : 42 b/s
Count of elements : 494
Stream size : 14.0 KiB (0%)
Title : Brazilian Portuguese
Language : Portuguese
Default : No
Forced : No

Text #5
ID : 8
Format : UTF-8
Codec ID : S_TEXT/UTF8
Codec ID/Info : UTF-8 Plain Text
Duration : 45 min 23 s
Bit rate : 1 b/s
Count of elements : 18
Stream size : 545 Bytes (0%)
Title : Czech [Forced]
Language : Czech
Default : No
Forced : Yes

Text #6
ID : 9
Format : UTF-8
Codec ID : S_TEXT/UTF8
Codec ID/Info : UTF-8 Plain Text
Duration : 45 min 23 s
Bit rate : 44 b/s
Count of elements : 510
Stream size : 14.7 KiB (0%)
Title : Czech
Language : Czech
Default : No
Forced : No

Text #7
ID : 10
Format : UTF-8
Codec ID : S_TEXT/UTF8
Codec ID/Info : UTF-8 Plain Text
Duration : 45 min 23 s
Bit rate : 40 b/s
Count of elements : 472
Stream size : 13.6 KiB (0%)
Title : Danish
Language : Danish
Default : No
Forced : No

Text #8
ID : 11
Format : UTF-8
Codec ID : S_TEXT/UTF8
Codec ID/Info : UTF-8 Plain Text
Duration : 45 min 23 s
Bit rate : 1 b/s
Count of elements : 15
Stream size : 474 Bytes (0%)
Title : German [Forced]
Language : German
Default : No
Forced : Yes

Text #9
ID : 12
Format : UTF-8
Codec ID : S_TEXT/UTF8
Codec ID/Info : UTF-8 Plain Text
Duration : 45 min 23 s
Bit rate : 43 b/s
Count of elements : 484
Stream size : 14.4 KiB (0%)
Title : German
Language : German
Default : No
Forced : No

Text #10
ID : 13
Format : UTF-8
Codec ID : S_TEXT/UTF8
Codec ID/Info : UTF-8 Plain Text
Duration : 45 min 23 s
Bit rate : 72 b/s
Count of elements : 497
Stream size : 24.0 KiB (0%)
Title : Greek
Language : Greek
Default : No
Forced : No

Text #11
ID : 14
Format : UTF-8
Codec ID : S_TEXT/UTF8
Codec ID/Info : UTF-8 Plain Text
Duration : 43 min 46 s
Bit rate : 68 b/s
Count of elements : 726
Stream size : 22.0 KiB (0%)
Title : English [SDH]
Language : English
Default : No
Forced : No

Text #12
ID : 15
Format : UTF-8
Codec ID : S_TEXT/UTF8
Codec ID/Info : UTF-8 Plain Text
Duration : 34 min 54 s
Bit rate : 1 b/s
Count of elements : 15
Stream size : 414 Bytes (0%)
Title : English [Forced]
Language : English
Default : No
Forced : Yes

Text #13
ID : 16
Format : UTF-8
Codec ID : S_TEXT/UTF8
Codec ID/Info : UTF-8 Plain Text
Duration : 43 min 41 s
Bit rate : 44 b/s
Count of elements : 516
Stream size : 14.1 KiB (0%)
Title : English
Language : English
Default : No
Forced : No

Text #14
ID : 17
Format : UTF-8
Codec ID : S_TEXT/UTF8
Codec ID/Info : UTF-8 Plain Text
Duration : 45 min 21 s
Bit rate : 1 b/s
Count of elements : 16
Stream size : 507 Bytes (0%)
Title : European Spanish [Forced]
Language : Spanish
Default : No
Forced : Yes

Text #15
ID : 18
Format : UTF-8
Codec ID : S_TEXT/UTF8
Codec ID/Info : UTF-8 Plain Text
Duration : 45 min 21 s
Bit rate : 41 b/s
Count of elements : 524
Stream size : 13.8 KiB (0%)
Title : European Spanish
Language : Spanish
Default : No
Forced : No

Text #16
ID : 19
Format : UTF-8
Codec ID : S_TEXT/UTF8
Codec ID/Info : UTF-8 Plain Text
Duration : 45 min 23 s
Bit rate : 40 b/s
Count of elements : 390
Stream size : 13.4 KiB (0%)
Title : Finnish
Language : Finnish
Default : No
Forced : No

Text #17
ID : 20
Format : UTF-8
Codec ID : S_TEXT/UTF8
Codec ID/Info : UTF-8 Plain Text
Duration : 43 min 46 s
Bit rate : 60 b/s
Count of elements : 627
Stream size : 19.4 KiB (0%)
Title : French [SDH]
Language : French
Default : No
Forced : No

Text #18
ID : 21
Format : UTF-8
Codec ID : S_TEXT/UTF8
Codec ID/Info : UTF-8 Plain Text
Duration : 45 min 23 s
Bit rate : 71 b/s
Count of elements : 504
Stream size : 23.7 KiB (0%)
Title : Hebrew
Language : Hebrew
Default : No
Forced : No

Text #19
ID : 22
Format : UTF-8
Codec ID : S_TEXT/UTF8
Codec ID/Info : UTF-8 Plain Text
Duration : 45 min 22 s
Bit rate : 1 b/s
Count of elements : 19
Stream size : 624 Bytes (0%)
Title : Hindi [Forced]
Language : Hindi
Default : No
Forced : Yes

Text #20
ID : 23
Format : UTF-8
Codec ID : S_TEXT/UTF8
Codec ID/Info : UTF-8 Plain Text
Duration : 43 min 41 s
Bit rate : 39 b/s
Count of elements : 511
Stream size : 12.8 KiB (0%)
Title : Croatian
Language : Croatian
Default : No
Forced : No

Text #21
ID : 24
Format : UTF-8
Codec ID : S_TEXT/UTF8
Codec ID/Info : UTF-8 Plain Text
Duration : 45 min 23 s
Bit rate : 1 b/s
Count of elements : 14
Stream size : 490 Bytes (0%)
Title : Hungarian [Forced]
Language : Hungarian
Default : No
Forced : Yes

Text #22
ID : 25
Format : UTF-8
Codec ID : S_TEXT/UTF8
Codec ID/Info : UTF-8 Plain Text
Duration : 45 min 23 s
Bit rate : 42 b/s
Count of elements : 479
Stream size : 14.0 KiB (0%)
Title : Hungarian
Language : Hungarian
Default : No
Forced : No

Text #23
ID : 26
Format : UTF-8
Codec ID : S_TEXT/UTF8
Codec ID/Info : UTF-8 Plain Text
Duration : 45 min 23 s
Bit rate : 41 b/s
Count of elements : 501
Stream size : 13.7 KiB (0%)
Title : Indonesian
Language : Indonesian
Default : No
Forced : No

Text #24
ID : 27
Format : UTF-8
Codec ID : S_TEXT/UTF8
Codec ID/Info : UTF-8 Plain Text
Duration : 45 min 23 s
Bit rate : 1 b/s
Count of elements : 16
Stream size : 447 Bytes (0%)
Title : Italian [Forced]
Language : Italian
Default : No
Forced : Yes

Text #25
ID : 28
Format : UTF-8
Codec ID : S_TEXT/UTF8
Codec ID/Info : UTF-8 Plain Text
Duration : 45 min 23 s
Bit rate : 41 b/s
Count of elements : 502
Stream size : 13.8 KiB (0%)
Title : Italian
Language : Italian
Default : No
Forced : No

Text #26
ID : 29
Format : UTF-8
Codec ID : S_TEXT/UTF8
Codec ID/Info : UTF-8 Plain Text
Duration : 45 min 24 s
Bit rate : 2 b/s
Count of elements : 21
Stream size : 714 Bytes (0%)
Title : Japanese [Forced]
Language : Japanese
Default : No
Forced : Yes

Text #27
ID : 30
Format : UTF-8
Codec ID : S_TEXT/UTF8
Codec ID/Info : UTF-8 Plain Text
Duration : 45 min 24 s
Bit rate : 45 b/s
Count of elements : 568
Stream size : 15.3 KiB (0%)
Title : Japanese
Language : Japanese
Default : No
Forced : No

Text #28
ID : 31
Format : UTF-8
Codec ID : S_TEXT/UTF8
Codec ID/Info : UTF-8 Plain Text
Duration : 45 min 23 s
Bit rate : 58 b/s
Count of elements : 516
Stream size : 19.6 KiB (0%)
Title : Korean
Language : Korean
Default : No
Forced : No

Text #29
ID : 32
Format : UTF-8
Codec ID : S_TEXT/UTF8
Codec ID/Info : UTF-8 Plain Text
Duration : 45 min 21 s
Bit rate : 40 b/s
Count of elements : 483
Stream size : 13.6 KiB (0%)
Title : Malay
Language : Malay
Default : No
Forced : No

Text #30
ID : 33
Format : UTF-8
Codec ID : S_TEXT/UTF8
Codec ID/Info : UTF-8 Plain Text
Duration : 45 min 23 s
Bit rate : 43 b/s
Count of elements : 434
Stream size : 14.4 KiB (0%)
Title : Dutch
Language : Dutch
Default : No
Forced : No

Text #31
ID : 34
Format : UTF-8
Codec ID : S_TEXT/UTF8
Codec ID/Info : UTF-8 Plain Text
Duration : 45 min 23 s
Bit rate : 39 b/s
Count of elements : 481
Stream size : 13.2 KiB (0%)
Title : Norwegian Bokmal
Language : Norwegian Bokmal
Default : No
Forced : No

Text #32
ID : 35
Format : UTF-8
Codec ID : S_TEXT/UTF8
Codec ID/Info : UTF-8 Plain Text
Duration : 30 min 22 s
Bit rate : 2 b/s
Count of elements : 19
Stream size : 621 Bytes (0%)
Title : Polish [Forced]
Language : Polish
Default : No
Forced : Yes

Text #33
ID : 36
Format : UTF-8
Codec ID : S_TEXT/UTF8
Codec ID/Info : UTF-8 Plain Text
Duration : 45 min 23 s
Bit rate : 39 b/s
Count of elements : 498
Stream size : 13.2 KiB (0%)
Title : Polish
Language : Polish
Default : No
Forced : No

Text #34
ID : 37
Format : UTF-8
Codec ID : S_TEXT/UTF8
Codec ID/Info : UTF-8 Plain Text
Duration : 45 min 23 s
Bit rate : 43 b/s
Count of elements : 485
Stream size : 14.3 KiB (0%)
Title : Portuguese
Language : Portuguese
Default : No
Forced : No

Text #35
ID : 38
Format : UTF-8
Codec ID : S_TEXT/UTF8
Codec ID/Info : UTF-8 Plain Text
Duration : 45 min 23 s
Bit rate : 44 b/s
Count of elements : 499
Stream size : 14.9 KiB (0%)
Title : Romanian
Language : Romanian
Default : No
Forced : No

Text #36
ID : 39
Format : UTF-8
Codec ID : S_TEXT/UTF8
Codec ID/Info : UTF-8 Plain Text
Duration : 45 min 23 s
Bit rate : 3 b/s
Count of elements : 22
Stream size : 1.01 KiB (0%)
Title : Russian [Forced]
Language : Russian
Default : No
Forced : Yes

Text #37
ID : 40
Format : UTF-8
Codec ID : S_TEXT/UTF8
Codec ID/Info : UTF-8 Plain Text
Duration : 45 min 23 s
Bit rate : 72 b/s
Count of elements : 515
Stream size : 24.0 KiB (0%)
Title : Russian
Language : Russian
Default : No
Forced : No

Text #38
ID : 41
Format : UTF-8
Codec ID : S_TEXT/UTF8
Codec ID/Info : UTF-8 Plain Text
Duration : 45 min 23 s
Bit rate : 1 b/s
Count of elements : 19
Stream size : 541 Bytes (0%)
Title : Spanish [Forced]
Language : Spanish
Default : No
Forced : Yes

Text #39
ID : 42
Format : UTF-8
Codec ID : S_TEXT/UTF8
Codec ID/Info : UTF-8 Plain Text
Duration : 45 min 23 s
Bit rate : 43 b/s
Count of elements : 512
Stream size : 14.5 KiB (0%)
Title : Spanish
Language : Spanish
Default : No
Forced : No

Text #40
ID : 43
Format : UTF-8
Codec ID : S_TEXT/UTF8
Codec ID/Info : UTF-8 Plain Text
Duration : 45 min 23 s
Bit rate : 45 b/s
Count of elements : 456
Stream size : 15.0 KiB (0%)
Title : Swedish
Language : Swedish
Default : No
Forced : No

Text #41
ID : 44
Format : UTF-8
Codec ID : S_TEXT/UTF8
Codec ID/Info : UTF-8 Plain Text
Duration : 45 min 23 s
Bit rate : 4 b/s
Count of elements : 22
Stream size : 1.56 KiB (0%)
Title : Thai [Forced]
Language : Thai
Default : No
Forced : Yes

Text #42
ID : 45
Format : UTF-8
Codec ID : S_TEXT/UTF8
Codec ID/Info : UTF-8 Plain Text
Duration : 45 min 23 s
Bit rate : 112 b/s
Count of elements : 513
Stream size : 37.3 KiB (0%)
Title : Thai
Language : Thai
Default : No
Forced : No

Text #43
ID : 46
Format : UTF-8
Codec ID : S_TEXT/UTF8
Codec ID/Info : UTF-8 Plain Text
Duration : 45 min 23 s
Bit rate : 1 b/s
Count of elements : 19
Stream size : 560 Bytes (0%)
Title : Turkish [Forced]
Language : Turkish
Default : No
Forced : Yes

Text #44
ID : 47
Format : UTF-8
Codec ID : S_TEXT/UTF8
Codec ID/Info : UTF-8 Plain Text
Duration : 45 min 23 s
Bit rate : 44 b/s
Count of elements : 496
Stream size : 14.8 KiB (0%)
Title : Turkish
Language : Turkish
Default : No
Forced : No

Text #45
ID : 48
Format : UTF-8
Codec ID : S_TEXT/UTF8
Codec ID/Info : UTF-8 Plain Text
Duration : 45 min 23 s
Bit rate : 67 b/s
Count of elements : 501
Stream size : 22.3 KiB (0%)
Title : Ukrainian
Language : Ukrainian
Default : No
Forced : No

Text #46
ID : 49
Format : UTF-8
Codec ID : S_TEXT/UTF8
Codec ID/Info : UTF-8 Plain Text
Duration : 45 min 23 s
Bit rate : 60 b/s
Count of elements : 498
Stream size : 20.2 KiB (0%)
Title : Vietnamese
Language : Vietnamese
Default : No
Forced : No

Text #47
ID : 50
Format : UTF-8
Codec ID : S_TEXT/UTF8
Codec ID/Info : UTF-8 Plain Text
Duration : 45 min 23 s
Bit rate : 50 b/s
Count of elements : 521
Stream size : 16.6 KiB (0%)
Title : Chinese Simplified
Language : Chinese
Default : No
Forced : No

Text #48
ID : 51
Format : UTF-8
Codec ID : S_TEXT/UTF8
Codec ID/Info : UTF-8 Plain Text
Duration : 45 min 23 s
Bit rate : 49 b/s
Count of elements : 581
Stream size : 16.5 KiB (0%)
Title : Chinese Traditional
Language : Chinese
Default : No
Forced : No





Lupin S02E04


Lupin S02E04


Lupin S02E04


Lupin S02E04


Lupin S02E04

All episodes