Featured TV Shows


Magnum P.I. S01E04

Posted By: Tavaz
1080p (FullHD) / HDTV IMDb
Magnum P.I. S01E04

Magnum P.I. S01E04
HDTV | MKV | 1920x1080 | French / English | H264 @ 9006 kbps | AAC @ 61 kbps | 39 min 24 s | 2.51 GiB
Subtitles: French
Genre: Drama


Thomas Magnum, a decorated former Navy SEAL who, upon returning home from Afghanistan, repurposes his military skills to become a private investigator in Hawaii taking jobs no one else will with the help of fellow vets T.C. Calvin and Rick Wright, and the former MI:6 agent Higgins.

9d9c20b2d950442da416e4a6b0d280c9.mkv (2.5 GB)



General
Unique ID : 2562704880331705486211900071712311889 (0x1ED8F1B114169E38DAE5FD89FC2CA51)
Complete name : ./9d9c20b2d950442da416e4a6b0d280c9.mkv
Format : Matroska
Format version : Version 4 / Version 2
File size : 2.51 GiB
Duration : 39 min 24 s
Overall bit rate : 9 133 kb/s
Encoded date : UTC 2020-01-14 21:04:38
Writing application : mkvmerge v42.0.0 ('Overtime') 64-bit
Writing library : libebml v1.3.10 + libmatroska v1.5.2

Video
ID : 1
Format : AVC
Format/Info : Advanced Video Codec
Format profile : High@L4
Format settings : CABAC / 4 Ref Frames
Format settings, CABAC : Yes
Format settings, RefFrames : 4 frames
Codec ID : V_MPEG4/ISO/AVC
Duration : 39 min 24 s
Bit rate : 9 007 kb/s
Width : 1 920 pixels
Height : 1 080 pixels
Display aspect ratio : 16:9
Frame rate mode : Constant
Frame rate : 25.000 FPS
Standard : Component
Color space : YUV
Chroma subsampling : 4:2:0
Bit depth : 8 bits
Scan type : MBAFF
Scan type, store method : Interleaved fields
Scan order : Top Field First
Bits/(Pixel*Frame) : 0.174
Stream size : 2.48 GiB (99%)
Default : No
Forced : No
Color range : Limited
Color primaries : BT.709
Transfer characteristics : BT.709
Matrix coefficients : BT.709

Audio #1
ID : 2
Format : AAC
Format/Info : Advanced Audio Codec
Format profile : HE-AAC / LC
Format settings : Explicit
Codec ID : A_AAC-2
Duration : 39 min 24 s
Bit rate : 61.9 kb/s
Channel(s) : 2 channels
Channel positions : Front: L R
Sampling rate : 48.0 kHz / 24.0 kHz
Frame rate : 23.438 FPS (1024 SPF)
Compression mode : Lossy
Stream size : 17.5 MiB (1%)
Title : French
Language : French
Default : Yes
Forced : No

Audio #2
ID : 3
Format : AAC
Format/Info : Advanced Audio Codec
Format profile : HE-AAC / LC
Format settings : Explicit
Codec ID : A_AAC-2
Duration : 39 min 24 s
Bit rate : 61.9 kb/s
Channel(s) : 2 channels
Channel positions : Front: L R
Sampling rate : 48.0 kHz / 24.0 kHz
Frame rate : 23.438 FPS (1024 SPF)
Compression mode : Lossy
Stream size : 17.5 MiB (1%)
Title : English
Language : English
Default : No
Forced : No

Text #1
ID : 4
Format : UTF-8
Codec ID : S_TEXT/UTF8
Codec ID/Info : UTF-8 Plain Text
Duration : 37 min 3 s
Bit rate : 74 b/s
Count of elements : 670
Stream size : 20.3 KiB (0%)
Title : French
Language : French
Default : No
Forced : No

Text #2
ID : 5
Format : UTF-8
Codec ID : S_TEXT/UTF8
Codec ID/Info : UTF-8 Plain Text
Duration : 39 min 16 s
Bit rate : 70 b/s
Count of elements : 674
Stream size : 20.2 KiB (0%)
Title : French (SDH)
Language : French
Default : No
Forced : No





Magnum P.I. S01E04


Magnum P.I. S01E04


Magnum P.I. S01E04


Magnum P.I. S01E04


Magnum P.I. S01E04

All episodes