Featured TV Shows


Magnum P.I. S01E06

Posted By: Tavaz
1080p (FullHD) / HDTV IMDb
Magnum P.I. S01E06

Magnum P.I. S01E06
HDTV | MKV | 1920x1080 | French / English | H264 @ 9017 kbps | AAC @ 61 kbps | 41 min 11 s | 2.63 GiB
Subtitles: French
Genre: Drama


Thomas Magnum, a decorated former Navy SEAL who, upon returning home from Afghanistan, repurposes his military skills to become a private investigator in Hawaii taking jobs no one else will with the help of fellow vets T.C. Calvin and Rick Wright, and the former MI:6 agent Higgins.

6a74048a05db4c93bafff4f64fc26de7.mkv (2.6 GB)



General
Unique ID : 28833156629682447130644170586902918928 (0x15B11060A0DA1E17F91C64350B427710)
Complete name : ./6a74048a05db4c93bafff4f64fc26de7.mkv
Format : Matroska
Format version : Version 4 / Version 2
File size : 2.63 GiB
Duration : 41 min 11 s
Overall bit rate : 9 145 kb/s
Encoded date : UTC 2020-01-14 22:45:36
Writing application : mkvmerge v42.0.0 ('Overtime') 64-bit
Writing library : libebml v1.3.10 + libmatroska v1.5.2

Video
ID : 1
Format : AVC
Format/Info : Advanced Video Codec
Format profile : High@L4
Format settings : CABAC / 4 Ref Frames
Format settings, CABAC : Yes
Format settings, RefFrames : 4 frames
Format settings, GOP : M=8, N=32
Codec ID : V_MPEG4/ISO/AVC
Duration : 41 min 11 s
Bit rate : 9 018 kb/s
Width : 1 920 pixels
Height : 1 080 pixels
Display aspect ratio : 16:9
Frame rate mode : Constant
Frame rate : 25.000 FPS
Standard : Component
Color space : YUV
Chroma subsampling : 4:2:0
Bit depth : 8 bits
Scan type : MBAFF
Scan type, store method : Interleaved fields
Scan order : Top Field First
Bits/(Pixel*Frame) : 0.174
Stream size : 2.60 GiB (99%)
Default : No
Forced : No
Color range : Limited
Color primaries : BT.709
Transfer characteristics : BT.709
Matrix coefficients : BT.709

Audio #1
ID : 2
Format : AAC
Format/Info : Advanced Audio Codec
Format profile : HE-AAC / LC
Format settings : Explicit
Codec ID : A_AAC-2
Duration : 41 min 11 s
Bit rate : 61.9 kb/s
Channel(s) : 2 channels
Channel positions : Front: L R
Sampling rate : 48.0 kHz / 24.0 kHz
Frame rate : 23.438 FPS (1024 SPF)
Compression mode : Lossy
Stream size : 18.3 MiB (1%)
Title : French
Language : French
Default : Yes
Forced : No

Audio #2
ID : 3
Format : AAC
Format/Info : Advanced Audio Codec
Format profile : HE-AAC / LC
Format settings : Explicit
Codec ID : A_AAC-2
Duration : 41 min 11 s
Bit rate : 61.9 kb/s
Channel(s) : 2 channels
Channel positions : Front: L R
Sampling rate : 48.0 kHz / 24.0 kHz
Frame rate : 23.438 FPS (1024 SPF)
Compression mode : Lossy
Stream size : 18.3 MiB (1%)
Title : English
Language : English
Default : No
Forced : No

Text #1
ID : 4
Format : UTF-8
Codec ID : S_TEXT/UTF8
Codec ID/Info : UTF-8 Plain Text
Duration : 41 min 0 s
Bit rate : 70 b/s
Count of elements : 688
Stream size : 21.0 KiB (0%)
Title : French
Language : French
Default : No
Forced : No

Text #2
ID : 5
Format : UTF-8
Codec ID : S_TEXT/UTF8
Codec ID/Info : UTF-8 Plain Text
Duration : 41 min 5 s
Bit rate : 69 b/s
Count of elements : 696
Stream size : 20.9 KiB (0%)
Title : French (SDH)
Language : French
Default : No
Forced : No





Magnum P.I. S01E06


Magnum P.I. S01E06


Magnum P.I. S01E06


Magnum P.I. S01E06


Magnum P.I. S01E06

All episodes