Featured TV Shows


Making a Murderer S01E09

Posted By: Tavaz
SD / WEBRip IMDb
Making a Murderer S01E09

Making a Murderer S01E09
WEBRip | AVI | 640x360 | MP4V-ES @ 1347 kbps | MPEG Audio @ 128 kbps | 1 h 6 min | 704 MiB
Genre: Documentary

Filmed over 10 years, this real-life thriller follows a DNA exoneree who, while exposing police corruption, becomes a suspect in a grisly new crime.

1e41a5671d554e9b814b189221cd5893.avi (703.6 MB)



General
Complete name : ./1e41a5671d554e9b814b189221cd5893.avi
Format : AVI
Format/Info : Audio Video Interleave
File size : 704 MiB
Duration : 1 h 6 min
Overall bit rate : 1 487 kb/s
Writing application : VirtualDubMod 1.5.10.2 (build 2542/release)
Writing library : VirtualDubMod build 2542/release

Video
ID : 0
Format : MPEG-4 Visual
Format profile : Simple@L3
Format settings, BVOP : No
Format settings, QPel : No
Format settings, GMC : No warppoints
Format settings, Matrix : Default (H.263)
Codec ID : XVID
Codec ID/Hint : XviD
Duration : 1 h 6 min
Bit rate : 1 347 kb/s
Width : 640 pixels
Height : 360 pixels
Display aspect ratio : 16:9
Frame rate : 29.970 (30000/1001) FPS
Color space : YUV
Chroma subsampling : 4:2:0
Bit depth : 8 bits
Scan type : Progressive
Compression mode : Lossy
Bits/(Pixel*Frame) : 0.195
Stream size : 637 MiB (91%)
Writing library : XviD 64

Audio
ID : 1
Format : MPEG Audio
Format version : Version 1
Format profile : Layer 3
Format settings : Joint stereo
Mode : Joint stereo
Codec ID : 55
Codec ID/Hint : MP3
Duration : 1 h 6 min
Bit rate mode : Constant
Bit rate : 128 kb/s
Channel(s) : 2 channels
Sampling rate : 48.0 kHz
Compression mode : Lossy
Stream size : 60.6 MiB (9%)
Alignment : Aligned on interleaves
Interleave, duration : 33 ms (1.00 video frame)
Interleave, preload duration : 504 ms





Making a Murderer S01E09


Making a Murderer S01E09


Making a Murderer S01E09


Making a Murderer S01E09


Making a Murderer S01E09

All episodes