Featured TV Shows


Making a Murderer S02E07

Posted By: Tavaz
SD / WEBRip IMDb
Making a Murderer S02E07

Making a Murderer S02E07
WEBRip | MKV | 720x480 | English | H264 @ 1540 kbps | E-AC-3 @ 128 kbps | 59 min 48 s | 696 MiB
Subtitles: German, Swedish, Norwegian Bokmal, Finnish, English
Genre: Documentary

Filmed over 10 years, this real-life thriller follows a DNA exoneree who, while exposing police corruption, becomes a suspect in a grisly new crime.

a6770fd98327470f92cdebb31cd69608.mkv (696.3 MB)



General
Unique ID : 1015894062718820835220923559814509604 (0xC3A771C240BCF6567E0881F2EE3424)
Complete name : ./a6770fd98327470f92cdebb31cd69608.mkv
Format : Matroska
Format version : Version 4 / Version 2
File size : 696 MiB
Duration : 59 min 48 s
Overall bit rate mode : Variable
Overall bit rate : 1 628 kb/s
Encoded date : UTC 2018-10-19 07:08:33
Writing application : mkvmerge v27.0.0 ('Metropolis') 64-bit
Writing library : libebml v1.3.6 + libmatroska v1.4.9

Video
ID : 1
Format : AVC
Format/Info : Advanced Video Codec
Format profile : Main@L3
Format settings : CABAC / 3 Ref Frames
Format settings, CABAC : Yes
Format settings, RefFrames : 3 frames
Codec ID : V_MPEG4/ISO/AVC
Duration : 59 min 47 s
Bit rate mode : Variable
Bit rate : 1 540 kb/s
Maximum bit rate : 2 310 kb/s
Width : 720 pixels
Height : 480 pixels
Display aspect ratio : 16:9
Frame rate mode : Constant
Frame rate : 29.970 (30000/1001) FPS
Standard : NTSC
Color space : YUV
Chroma subsampling : 4:2:0
Bit depth : 8 bits
Scan type : Progressive
Bits/(Pixel*Frame) : 0.149
Stream size : 640 MiB (92%)
Writing library : x264 core 148 r2715 7e75228
Encoding settings : cabac=1 / ref=3 / deblock=1:0:0 / analyse=0x1:0x111 / me=umh / subme=10 / psy=1 / psy_rd=1.00:0.00 / mixed_ref=1 / me_range=24 / chroma_me=1 / trellis=2 / 8x8dct=0 / cqm=0 / deadzone=21,11 / fast_pskip=1 / chroma_qp_offset=-2 / threads=8 / lookahead_threads=1 / sliced_threads=0 / nr=0 / decimate=1 / interlaced=0 / bluray_compat=0 / stitchable=1 / constrained_intra=0 / bframes=2 / b_pyramid=0 / b_adapt=2 / b_bias=0 / direct=3 / weightb=1 / open_gop=0 / weightp=2 / keyint=60 / keyint_min=31 / scenecut=0 / intra_refresh=0 / rc_lookahead=60 / rc=2pass / mbtree=1 / bitrate=1540 / ratetol=1.0 / qcomp=0.50 / qpmin=6 / qpmax=51 / qpstep=4 / cplxblur=20.0 / qblur=0.5 / vbv_maxrate=2310 / vbv_bufsize=3080 / nal_hrd=vbr / filler=0 / ip_ratio=1.40 / aq=1:1.00
Default : Yes
Forced : No

Audio
ID : 2
Format : E-AC-3
Format/Info : Enhanced Audio Coding 3
Format settings, Endianness : Big
Codec ID : A_EAC3
Duration : 59 min 48 s
Bit rate mode : Constant
Bit rate : 128 kb/s
Channel(s) : 2 channels
Channel positions : Front: L R
Sampling rate : 48.0 kHz
Frame rate : 187.500 FPS (256 SPF)
Compression mode : Lossy
Stream size : 54.7 MiB (8%)
Language : English
Service kind : Complete Main
Default : Yes
Forced : No

Text #1
ID : 3
Format : UTF-8
Codec ID : S_TEXT/UTF8
Codec ID/Info : UTF-8 Plain Text
Duration : 57 min 9 s
Bit rate : 10 b/s
Count of elements : 152
Stream size : 4.52 KiB (0%)
Title : Forced
Language : English
Default : No
Forced : Yes

Text #2
ID : 4
Format : UTF-8
Codec ID : S_TEXT/UTF8
Codec ID/Info : UTF-8 Plain Text
Duration : 57 min 32 s
Bit rate : 82 b/s
Count of elements : 864
Stream size : 34.8 KiB (0%)
Language : English
Default : No
Forced : No

Text #3
ID : 5
Format : UTF-8
Codec ID : S_TEXT/UTF8
Codec ID/Info : UTF-8 Plain Text
Duration : 59 min 13 s
Bit rate : 58 b/s
Count of elements : 760
Stream size : 25.4 KiB (0%)
Language : Finnish
Default : No
Forced : No

Text #4
ID : 6
Format : UTF-8
Codec ID : S_TEXT/UTF8
Codec ID/Info : UTF-8 Plain Text
Duration : 59 min 13 s
Bit rate : 80 b/s
Count of elements : 860
Stream size : 34.8 KiB (0%)
Language : German
Default : No
Forced : No

Text #5
ID : 7
Format : UTF-8
Codec ID : S_TEXT/UTF8
Codec ID/Info : UTF-8 Plain Text
Duration : 59 min 16 s
Bit rate : 69 b/s
Count of elements : 803
Stream size : 30.3 KiB (0%)
Language : Norwegian Bokmal
Default : No
Forced : No

Text #6
ID : 8
Format : UTF-8
Codec ID : S_TEXT/UTF8
Codec ID/Info : UTF-8 Plain Text
Duration : 59 min 16 s
Bit rate : 69 b/s
Count of elements : 739
Stream size : 30.0 KiB (0%)
Language : Swedish
Default : No
Forced : No





Making a Murderer S02E07


Making a Murderer S02E07


Making a Murderer S02E07


Making a Murderer S02E07


Making a Murderer S02E07

All episodes