Man with a Plan S02E08

Posted By: Tavaz
1080p (FullHD) / HDTV IMDb
Man with a Plan S02E08

Man with a Plan S02E08
HDTV | MKV | 1920x1080 | English | H264 @ 14088 kbps | DTS @ 1509 kbps | 21 min 24 s | 2.38 GiB
Genre: Comedy

A dad finds out that parenting is harder than he thought after his wife goes back to work and he's left at home to take care of the kids.

21930ab96df44b049ebdfdaf2416e274.mkv (2.4 GB)



General
Unique ID : 247634720942065909586419889890803825575 (0xBA4CB6620630264A9DBCF8F1C42BBBA7)
Complete name : ./21930ab96df44b049ebdfdaf2416e274.mkv
Format : Matroska
Format version : Version 2
File size : 2.38 GiB
Duration : 21 min 24 s
Overall bit rate : 15.9 Mb/s
Encoded date : UTC 2018-01-22 19:08:54
Writing application : mkvmerge v3.1.0 ('Happy up here') built on Jan 19 2010 12:09:24
Writing library : libebml v0.7.9 + libmatroska v0.8.1

Video
ID : 1
Format : AVC
Format/Info : Advanced Video Codec
Format profile : High@L4.1
Format settings : CABAC / 4 Ref Frames
Format settings, CABAC : Yes
Format settings, RefFrames : 4 frames
Codec ID : V_MPEG4/ISO/AVC
Duration : 21 min 24 s
Bit rate : 14.1 Mb/s
Width : 1 920 pixels
Height : 1 080 pixels
Display aspect ratio : 16:9
Frame rate mode : Constant
Frame rate : 23.976 (24000/1001) FPS
Color space : YUV
Chroma subsampling : 4:2:0
Bit depth : 8 bits
Scan type : Progressive
Bits/(Pixel*Frame) : 0.283
Stream size : 2.11 GiB (89%)
Writing library : x264 core 152 r2851 ba24899
Encoding settings : cabac=1 / ref=4 / deblock=1:-3:-3 / analyse=0x3:0x133 / me=umh / subme=11 / psy=1 / psy_rd=1.00:0.00 / mixed_ref=1 / me_range=32 / chroma_me=1 / trellis=2 / 8x8dct=1 / cqm=0 / deadzone=21,11 / fast_pskip=0 / chroma_qp_offset=-2 / threads=18 / lookahead_threads=2 / sliced_threads=0 / nr=0 / decimate=1 / interlaced=0 / bluray_compat=0 / constrained_intra=0 / bframes=5 / b_pyramid=2 / b_adapt=2 / b_bias=0 / direct=3 / weightb=1 / open_gop=0 / weightp=2 / keyint=250 / keyint_min=23 / scenecut=40 / intra_refresh=0 / rc_lookahead=60 / rc=crf / mbtree=1 / crf=17.0 / qcomp=0.60 / qpmin=0 / qpmax=69 / qpstep=4 / ip_ratio=1.40 / aq=1:1.00
Language : English
Default : No
Forced : No

Audio
ID : 2
Format : DTS
Format/Info : Digital Theater Systems
Mode : 16
Format settings, Endianness : Big
Codec ID : A_DTS
Duration : 21 min 24 s
Bit rate mode : Constant
Bit rate : 1 510 kb/s
Channel(s) : 6 channels
Channel positions : Front: L C R, Side: L R, LFE
Sampling rate : 48.0 kHz
Frame rate : 93.750 FPS (512 SPF)
Bit depth : 24 bits
Compression mode : Lossy
Stream size : 231 MiB (9%)
Default : Yes
Forced : No





Man with a Plan S02E08


Man with a Plan S02E08


Man with a Plan S02E08


Man with a Plan S02E08


Man with a Plan S02E08

All episodes