Featured TV Shows


Manhunt: Unabomber S01E06

Posted By: Tavaz
1080p (FullHD) / WEB-DL IMDb
Manhunt: Unabomber S01E06

Manhunt: Unabomber S01E06
WEB-DL | MKV | 1920x1080 | Italian / English | H264 @ 10702 kbps | AC-3 @ 384 kbps | 43 min 5 s | 3.45 GiB
Subtitles: English, Italian
Genre: Crime, Drama

Un profiler dal volto fresco e pulito, Jim 'Fitz' Fitzgerald è l'ultima aggiunta alla task force messa in piedi dall'FBI per fermare Unabom, uno dei criminali più sofisticati e brillanti della storia, ribattezzato dai media Unabomber. Un matematico ed ex docente universitario, Ted Kaczynski è un terrorista che colpisce le sue numerose vittime inviando loro pacchi postali esplosivi. Oltre alla difficile battaglia con quest'ultimo, Fitz, che promuove l'uso della linguistica forense per identificare e - infine - catturare Unabomber, deve vedersela con gli ordinamenti dell'agenzia stessa, poiché le sue idee e i suoi nuovi approcci sono disapprovati dal sistema.

Manhunt.Unabomber.1x06.Ted.ITA-ENG.1080p.WEBMux.DD5.1.x264-NovaRip.mkv (3.4 GB)



General
Unique ID : 4179985803907356189670935537586060604 (0x3250936294B0BF579A709A09F54BD3C)
Complete name : ./Manhunt.Unabomber.1x06.Ted.ITA-ENG.1080p.WEBMux.DD5.1.x264-NovaRip.mkv
Format : Matroska
Format version : Version 2
File size : 3.45 GiB
Duration : 43 min 5 s
Overall bit rate : 11.5 Mb/s
Encoded date : UTC 2018-01-01 11:59:25
Writing application : mkvmerge v8.5.2 ('Crosses') 64bit
Writing library : libebml v1.3.3 + libmatroska v1.4.4

Video
ID : 1
Format : AVC
Format/Info : Advanced Video Codec
Format profile : High@L4.1
Format settings : CABAC / 4 Ref Frames
Format settings, CABAC : Yes
Format settings, RefFrames : 4 frames
Codec ID : V_MPEG4/ISO/AVC
Duration : 43 min 1 s
Bit rate : 10.7 Mb/s
Width : 1 920 pixels
Height : 1 080 pixels
Display aspect ratio : 16:9
Frame rate mode : Constant
Frame rate : 23.976 (24000/1001) FPS
Color space : YUV
Chroma subsampling : 4:2:0
Bit depth : 8 bits
Scan type : Progressive
Bits/(Pixel*Frame) : 0.215
Stream size : 3.22 GiB (93%)
Writing library : x264 core 144 r2525 40bb568
Encoding settings : cabac=1 / ref=4 / deblock=1:-3:-3 / analyse=0x3:0x133 / me=umh / subme=10 / psy=1 / psy_rd=1.00:0.00 / mixed_ref=1 / me_range=48 / chroma_me=1 / trellis=2 / 8x8dct=1 / cqm=0 / deadzone=21,11 / fast_pskip=0 / chroma_qp_offset=-2 / threads=12 / lookahead_threads=2 / sliced_threads=0 / nr=0 / decimate=0 / interlaced=0 / bluray_compat=0 / constrained_intra=0 / bframes=8 / b_pyramid=2 / b_adapt=2 / b_bias=0 / direct=3 / weightb=1 / open_gop=0 / weightp=2 / keyint=250 / keyint_min=23 / scenecut=40 / intra_refresh=0 / rc=crf / mbtree=0 / crf=18.0 / qcomp=0.60 / qpmin=0 / qpmax=69 / qpstep=4 / ip_ratio=1.30 / pb_ratio=1.20 / aq=3:0.80
Language : English
Default : Yes
Forced : Yes

Audio #1
ID : 2
Format : AC-3
Format/Info : Audio Coding 3
Format settings, Endianness : Big
Codec ID : A_AC3
Duration : 43 min 1 s
Bit rate mode : Constant
Bit rate : 384 kb/s
Channel(s) : 6 channels
Channel positions : Front: L C R, Side: L R, LFE
Sampling rate : 48.0 kHz
Frame rate : 31.250 FPS (1536 SPF)
Bit depth : 16 bits
Compression mode : Lossy
Stream size : 118 MiB (3%)
Title : ITA
Language : Italian
Service kind : Complete Main
Default : Yes
Forced : Yes

Audio #2
ID : 3
Format : AC-3
Format/Info : Audio Coding 3
Format settings, Endianness : Big
Codec ID : A_AC3
Duration : 43 min 1 s
Bit rate mode : Constant
Bit rate : 384 kb/s
Channel(s) : 6 channels
Channel positions : Front: L C R, Side: L R, LFE
Sampling rate : 48.0 kHz
Frame rate : 31.250 FPS (1536 SPF)
Bit depth : 16 bits
Compression mode : Lossy
Stream size : 118 MiB (3%)
Title : ENG
Language : English
Service kind : Complete Main
Default : No
Forced : No

Text #1
ID : 4
Format : UTF-8
Codec ID : S_TEXT/UTF8
Codec ID/Info : UTF-8 Plain Text
Duration : 43 min 4 s
Bit rate : 1 b/s
Count of elements : 23
Stream size : 622 Bytes (0%)
Title : ITA - Forced
Language : Italian
Default : Yes
Forced : Yes

Text #2
ID : 5
Format : UTF-8
Codec ID : S_TEXT/UTF8
Codec ID/Info : UTF-8 Plain Text
Duration : 43 min 4 s
Bit rate : 53 b/s
Count of elements : 382
Stream size : 16.8 KiB (0%)
Title : ITA
Language : Italian
Default : No
Forced : No

Text #3
ID : 6
Format : UTF-8
Codec ID : S_TEXT/UTF8
Codec ID/Info : UTF-8 Plain Text
Duration : 41 min 49 s
Bit rate : 62 b/s
Count of elements : 649
Stream size : 19.3 KiB (0%)
Title : ENG
Language : English
Default : No
Forced : No





Manhunt: Unabomber S01E06


Manhunt: Unabomber S01E06


Manhunt: Unabomber S01E06


Manhunt: Unabomber S01E06


Manhunt: Unabomber S01E06

All episodes