Maniac S01E10

Posted By: Tavaz
SD / WEB-DL IMDb
Maniac S01E10

Maniac S01E10
WEB-DL | MKV | 640x480 | Norwegian | H264 @ 1350 kbps | E-AC-3 @ 128 kbps | 20 min 52 s | 220 MiB
Subtitles: Swedish, Danish, Bulgarian, Finnish, Norwegian Bokmal, English, Dutch
Genre: Comedy

A darkly comedic series revolving around the fantasy worlds of two patients in a mental institute. Based on the 2014 Norwegian series of the same name.

3f9dda0f1f234a38bb9b5a57a9afb040.mkv (220.4 MB)



General
Unique ID : 155698113971749832536327701854515159730 (0x75225DB2103724A4D1FC0CF1FCFCE2B2)
Complete name : ./3f9dda0f1f234a38bb9b5a57a9afb040.mkv
Format : Matroska
Format version : Version 4 / Version 2
File size : 220 MiB
Duration : 20 min 52 s
Overall bit rate mode : Variable
Overall bit rate : 1 476 kb/s
Encoded date : UTC 2018-09-21 16:10:27
Writing application : mkvmerge v21.0.0 ('Tardigrades Will Inherit The Earth') 64-bit
Writing library : libebml v1.3.5 + libmatroska v1.4.8

Video
ID : 1
Format : AVC
Format/Info : Advanced Video Codec
Format profile : Baseline@L3
Format settings : 3 Ref Frames
Format settings, CABAC : No
Format settings, RefFrames : 3 frames
Format settings, GOP : M=1, N=50
Codec ID : V_MPEG4/ISO/AVC
Duration : 20 min 52 s
Bit rate mode : Variable
Bit rate : 1 350 kb/s
Maximum bit rate : 2 025 kb/s
Width : 640 pixels
Height : 480 pixels
Display aspect ratio : 16:9
Frame rate mode : Constant
Frame rate : 25.000 FPS
Color space : YUV
Chroma subsampling : 4:2:0
Bit depth : 8 bits
Scan type : Progressive
Bits/(Pixel*Frame) : 0.176
Stream size : 201 MiB (91%)
Writing library : x264 core 118
Encoding settings : cabac=0 / ref=3 / deblock=1:0:0 / analyse=0x1:0x111 / me=umh / subme=9 / psy=1 / psy_rd=1.00:0.00 / mixed_ref=1 / me_range=24 / chroma_me=1 / trellis=1 / 8x8dct=0 / cqm=0 / deadzone=21,11 / fast_pskip=1 / chroma_qp_offset=-2 / threads=8 / sliced_threads=0 / nr=0 / decimate=1 / interlaced=0 / bluray_compat=0 / constrained_intra=0 / bframes=0 / weightp=0 / keyint=50 / keyint_min=26 / scenecut=0 / intra_refresh=0 / rc_lookahead=0 / rc=2pass / mbtree=1 / bitrate=1350 / ratetol=1.0 / qcomp=0.50 / qpmin=8 / qpmax=51 / qpstep=4 / cplxblur=20.0 / qblur=0.5 / vbv_maxrate=2025 / vbv_bufsize=2700 / nal_hrd=vbr / ip_ratio=1.40 / aq=1:1.00
Default : Yes
Forced : No

Audio
ID : 2
Format : E-AC-3
Format/Info : Enhanced Audio Coding 3
Format settings, Endianness : Big
Codec ID : A_EAC3
Duration : 20 min 52 s
Bit rate mode : Constant
Bit rate : 128 kb/s
Channel(s) : 2 channels
Channel positions : Front: L R
Sampling rate : 48.0 kHz
Frame rate : 187.500 FPS (256 SPF)
Compression mode : Lossy
Stream size : 19.1 MiB (9%)
Title : Norwegian
Language : Norwegian
Service kind : Complete Main
Default : Yes
Forced : No

Text #1
ID : 3
Format : UTF-8
Codec ID : S_TEXT/UTF8
Codec ID/Info : UTF-8 Plain Text
Duration : 19 min 56 s
Bit rate : 42 b/s
Count of elements : 177
Stream size : 6.17 KiB (0%)
Language : English
Default : Yes
Forced : No

Text #2
ID : 4
Format : UTF-8
Codec ID : S_TEXT/UTF8
Codec ID/Info : UTF-8 Plain Text
Duration : 19 min 56 s
Bit rate : 75 b/s
Count of elements : 176
Stream size : 11.0 KiB (0%)
Language : Bulgarian
Default : No
Forced : No

Text #3
ID : 5
Format : UTF-8
Codec ID : S_TEXT/UTF8
Codec ID/Info : UTF-8 Plain Text
Duration : 19 min 56 s
Bit rate : 44 b/s
Count of elements : 175
Stream size : 6.57 KiB (0%)
Language : Danish
Default : No
Forced : No

Text #4
ID : 6
Format : UTF-8
Codec ID : S_TEXT/UTF8
Codec ID/Info : UTF-8 Plain Text
Duration : 19 min 56 s
Bit rate : 43 b/s
Count of elements : 178
Stream size : 6.29 KiB (0%)
Language : Finnish
Default : No
Forced : No

Text #5
ID : 7
Format : UTF-8
Codec ID : S_TEXT/UTF8
Codec ID/Info : UTF-8 Plain Text
Duration : 20 min 30 s
Bit rate : 49 b/s
Count of elements : 216
Stream size : 7.43 KiB (0%)
Title : SDH
Language : Norwegian Bokmal
Default : No
Forced : No

Text #6
ID : 8
Format : UTF-8
Codec ID : S_TEXT/UTF8
Codec ID/Info : UTF-8 Plain Text
Duration : 19 min 51 s
Bit rate : 45 b/s
Count of elements : 169
Stream size : 6.60 KiB (0%)
Language : Dutch
Default : No
Forced : No

Text #7
ID : 9
Format : UTF-8
Codec ID : S_TEXT/UTF8
Codec ID/Info : UTF-8 Plain Text
Duration : 19 min 56 s
Bit rate : 43 b/s
Count of elements : 176
Stream size : 6.42 KiB (0%)
Language : Swedish
Default : No
Forced : No





Maniac S01E10


Maniac S01E10


Maniac S01E10


Maniac S01E10


Maniac S01E10

All episodes