Index
# A B C D E F G H I J K L M N O P Q R S T U V W Y Z
Tags
Language
Tags

Featured TV Shows


Manifest S03E10

Posted By: Tavaz
1080p (FullHD) / WEB-DL IMDb
Manifest S03E10

Manifest S03E10
WEB-DL | MKV | 1920x1080 | English / Italiano | H264 @ 10000 kbps | AC-3 @ 192 kbps | 41 min 12 s | 3.00 GiB
Genre: Drama, Mystery


After landing from a turbulent but routine flight, the crew and passengers of Montego Air Flight 828 discover five years have passed in what seemed like a few hours. As their new realities become clear, a deeper mystery unfolds and some of the returned passengers soon realize they may be meant for something greater than they ever thought possible.

Manifest.3x10.La.Prova.Del.Fuoco.ITA-ENG.1080p.WEBMux.H264-NovaRip.mkv (3.0 GB)



General
Unique ID : 205268300909325376920128324893378512037 (0x9A6D3C9AB236F9143571B5CC3D0A84A5)
Complete name : ./Manifest.3x10.La.Prova.Del.Fuoco.ITA-ENG.1080p.WEBMux.H264-NovaRip.mkv
Format : Matroska
Format version : Version 2
File size : 3.00 GiB
Duration : 41 min 12 s
Overall bit rate mode : Constant
Overall bit rate : 10.4 Mb/s
Encoded date : UTC 2021-06-22 05:45:51
Writing application : mkvmerge v43.0.0 ('The Quartermaster') 64-bit
Writing library : libebml v1.3.10 + libmatroska v1.5.2

Video
ID : 1
Format : AVC
Format/Info : Advanced Video Codec
Format profile : High@L4
Format settings : CABAC / 4 Ref Frames
Format settings, CABAC : Yes
Format settings, RefFrames : 4 frames
Codec ID : V_MPEG4/ISO/AVC
Duration : 41 min 12 s
Bit rate mode : Constant
Bit rate : 10 000 kb/s
Width : 1 920 pixels
Height : 1 080 pixels
Display aspect ratio : 16:9
Frame rate mode : Constant
Frame rate : 25.000 FPS
Color space : YUV
Chroma subsampling : 4:2:0
Bit depth : 8 bits
Scan type : Progressive
Bits/(Pixel*Frame) : 0.193
Stream size : 2.83 GiB (94%)
Language : English
Default : Yes
Forced : Yes
Color range : Limited
Color primaries : BT.709
Transfer characteristics : BT.709
Matrix coefficients : BT.709

Audio #1
ID : 2
Format : AC-3
Format/Info : Audio Coding 3
Format settings, Endianness : Big
Codec ID : A_AC3
Duration : 41 min 12 s
Bit rate mode : Constant
Bit rate : 192 kb/s
Channel(s) : 2 channels
Channel positions : Front: L R
Sampling rate : 48.0 kHz
Frame rate : 31.250 FPS (1536 SPF)
Bit depth : 16 bits
Compression mode : Lossy
Stream size : 56.6 MiB (2%)
Title : ITA
Language : Italian
Service kind : Complete Main
Default : Yes
Forced : Yes

Audio #2
ID : 3
Format : AC-3
Format/Info : Audio Coding 3
Format settings, Endianness : Big
Codec ID : A_AC3
Duration : 41 min 12 s
Bit rate mode : Constant
Bit rate : 384 kb/s
Channel(s) : 6 channels
Channel positions : Front: L C R, Side: L R, LFE
Sampling rate : 48.0 kHz
Frame rate : 31.250 FPS (1536 SPF)
Bit depth : 16 bits
Compression mode : Lossy
Stream size : 113 MiB (4%)
Title : ENG
Language : English
Service kind : Complete Main
Default : No
Forced : No





Manifest S03E10


Manifest S03E10


Manifest S03E10


Manifest S03E10


Manifest S03E10

All episodes