Index
# A B C D E F G H I J K L M N O P Q R S T U V W Y Z
Tags
Language
Tags

Featured TV Shows


Manifest S01E08

Posted By:
1080p (FullHD) / WEB-DL IMDb
Manifest S01E08

Manifest S01E08
WEB-DL | MKV | 1920x1080 | English | H264 @ 6197 kbps | E-AC-3 @ 640 kbps | 42 min 57 s | 2.05 GiB
Subtitles: English
Genre: Drama, Mystery


After landing from a turbulent but routine flight, the crew and passengers of Montego Air Flight 828 discover five years have passed in what seemed like a few hours. As their new realities become clear, a deeper mystery unfolds and some of the returned passengers soon realize they may be meant for something greater than they ever thought possible.

ab33f08777ee4bad9e05ec681b46ee14.mkv (2.1 GB)



General
Unique ID : 158736406795275290306119739777177599706 (0x776B8518E596663944623E1F95EFBEDA)
Complete name : ./ab33f08777ee4bad9e05ec681b46ee14.mkv
Format : Matroska
Format version : Version 4 / Version 2
File size : 2.05 GiB
Duration : 42 min 57 s
Overall bit rate mode : Variable
Overall bit rate : 6 840 kb/s
Encoded date : UTC 2018-11-20 15:47:33
Writing application : mkvmerge v28.2.0 ('The Awakening') 64-bit
Writing library : libebml v1.3.6 + libmatroska v1.4.9

Video
ID : 1
Format : AVC
Format/Info : Advanced Video Codec
Format profile : High@L4
Format settings : CABAC / 4 Ref Frames
Format settings, CABAC : Yes
Format settings, RefFrames : 4 frames
Codec ID : V_MPEG4/ISO/AVC
Duration : 42 min 57 s
Bit rate mode : Variable
Bit rate : 6 198 kb/s
Maximum bit rate : 15.0 Mb/s
Width : 1 920 pixels
Height : 1 080 pixels
Display aspect ratio : 16:9
Frame rate mode : Constant
Frame rate : 23.976 (24000/1001) FPS
Color space : YUV
Chroma subsampling : 4:2:0
Bit depth : 8 bits
Scan type : Progressive
Bits/(Pixel*Frame) : 0.125
Stream size : 1.86 GiB (91%)
Default : Yes
Forced : No
Color range : Limited
Color primaries : BT.709
Transfer characteristics : BT.709
Matrix coefficients : BT.709

Audio
ID : 2
Format : E-AC-3
Format/Info : Enhanced Audio Coding 3
Format settings, Endianness : Big
Codec ID : A_EAC3
Duration : 42 min 56 s
Bit rate mode : Constant
Bit rate : 640 kb/s
Channel(s) : 6 channels
Channel positions : Front: L C R, Side: L R, LFE
Sampling rate : 48.0 kHz
Frame rate : 187.500 FPS (256 SPF)
Compression mode : Lossy
Stream size : 197 MiB (9%)
Language : English
Service kind : Complete Main
Default : Yes
Forced : No

Text
ID : 3
Format : UTF-8
Codec ID : S_TEXT/UTF8
Codec ID/Info : UTF-8 Plain Text
Duration : 42 min 56 s
Bit rate : 83 b/s
Count of elements : 987
Stream size : 26.1 KiB (0%)
Title : SDH
Language : English
Default : No
Forced : No





Manifest S01E08


Manifest S01E08


Manifest S01E08


Manifest S01E08


Manifest S01E08

All episodes