Index
# A B C D E F G H I J K L M N O P Q R S T U V W Y Z
Tags
Language
Tags

Featured TV Shows


Manifest S01E15

Posted By:
720p (HD) / WEBRip IMDb
Manifest S01E15

Manifest S01E15
WEBRip | MKV | 1280x720 | English | H264 @ 1960 kbps | AAC @ 64 kbps | 42 min 57 s | 623 MiB
Genre: Drama, Mystery


After landing from a turbulent but routine flight, the crew and passengers of Montego Air Flight 828 discover five years have passed in what seemed like a few hours. As their new realities become clear, a deeper mystery unfolds and some of the returned passengers soon realize they may be meant for something greater than they ever thought possible.

2b31fda40bd34c2aa5054c10baa78a44.mkv (622.6 MB)



General
Unique ID : 117643182396199033565921706182702341019 (0x588140B5BAF77A8B075D5BCC70951B9B)
Complete name : ./2b31fda40bd34c2aa5054c10baa78a44.mkv
Format : Matroska
Format version : Version 4 / Version 2
File size : 623 MiB
Duration : 42 min 57 s
Overall bit rate : 2 026 kb/s
Encoded date : UTC 2019-02-12 10:06:37
Writing application : mkvmerge v30.1.0 ('Forever And More') 64-bit
Writing library : libebml v1.3.6 + libmatroska v1.4.9

Video
ID : 1
Format : AVC
Format/Info : Advanced Video Codec
Format profile : High@L3.1
Format settings : CABAC / 5 Ref Frames
Format settings, CABAC : Yes
Format settings, RefFrames : 5 frames
Codec ID : V_MPEG4/ISO/AVC
Duration : 42 min 57 s
Bit rate : 1 961 kb/s
Width : 1 280 pixels
Height : 720 pixels
Display aspect ratio : 16:9
Frame rate mode : Constant
Frame rate : 23.976 (24000/1001) FPS
Color space : YUV
Chroma subsampling : 4:2:0
Bit depth : 8 bits
Scan type : Progressive
Bits/(Pixel*Frame) : 0.089
Stream size : 602 MiB (97%)
Language : English
Default : Yes
Forced : No

Audio
ID : 2
Format : AAC
Format/Info : Advanced Audio Codec
Format profile : HE-AAC / LC
Format settings : Explicit
Codec ID : A_AAC-2
Duration : 42 min 57 s
Bit rate : 64.0 kb/s
Channel(s) : 2 channels
Channel positions : Front: L R
Sampling rate : 48.0 kHz / 24.0 kHz
Frame rate : 23.438 FPS (1024 SPF)
Compression mode : Lossy
Stream size : 19.7 MiB (3%)
Default : Yes
Forced : No





Manifest S01E15


Manifest S01E15


Manifest S01E15


Manifest S01E15


Manifest S01E15

All episodes