Featured TV Shows


Manifest S02E01

Posted By: Tavaz
1080p (FullHD) / WEBRip IMDb
Manifest S02E01

Manifest S02E01
WEBRip | MKV | 1920x1080 | English | H264 @ 8924 kbps | E-AC-3 @ 640 kbps | 42 min 11 s | 2.82 GiB
Subtitles: English
Genre: Drama, Mystery


After landing from a turbulent but routine flight, the crew and passengers of Montego Air Flight 828 discover five years have passed in what seemed like a few hours. As their new realities become clear, a deeper mystery unfolds and some of the returned passengers soon realize they may be meant for something greater than they ever thought possible.

fe8db0475f0e49d48c6d0ec2b41ce974.mkv (2.8 GB)



General
Unique ID : 140198618178447829033178261660576742375 (0x6979458D8D408429B0C752339AC37BE7)
Complete name : ./fe8db0475f0e49d48c6d0ec2b41ce974.mkv
Format : Matroska
Format version : Version 4 / Version 2
File size : 2.82 GiB
Duration : 42 min 11 s
Overall bit rate : 9 566 kb/s
Encoded date : UTC 2020-01-07 08:00:49
Writing application : mkvmerge v40.0.0 ('Old Town Road + Pony') 64-bit
Writing library : libebml v1.3.9 + libmatroska v1.5.2

Video
ID : 1
Format : AVC
Format/Info : Advanced Video Codec
Format profile : High@L4
Format settings : CABAC / 4 Ref Frames
Format settings, CABAC : Yes
Format settings, RefFrames : 4 frames
Codec ID : V_MPEG4/ISO/AVC
Duration : 42 min 11 s
Bit rate mode : Constant
Bit rate : 8 924 kb/s
Nominal bit rate : 10 000 kb/s
Width : 1 920 pixels
Height : 1 080 pixels
Display aspect ratio : 16:9
Frame rate mode : Constant
Frame rate : 23.976 (24000/1001) FPS
Color space : YUV
Chroma subsampling : 4:2:0
Bit depth : 8 bits
Scan type : Progressive
Bits/(Pixel*Frame) : 0.180
Stream size : 2.63 GiB (93%)
Language : English
Default : Yes
Forced : No
Color range : Limited
Color primaries : BT.709
Transfer characteristics : BT.709
Matrix coefficients : BT.709

Audio
ID : 2
Format : E-AC-3
Format/Info : Enhanced Audio Coding 3
Format settings, Endianness : Big
Codec ID : A_EAC3
Duration : 42 min 11 s
Bit rate mode : Constant
Bit rate : 640 kb/s
Channel(s) : 6 channels
Channel positions : Front: L C R, Side: L R, LFE
Sampling rate : 48.0 kHz
Frame rate : 187.500 FPS (256 SPF)
Compression mode : Lossy
Stream size : 193 MiB (7%)
Language : English
Service kind : Complete Main
Default : Yes
Forced : No

Text
ID : 3
Format : UTF-8
Codec ID : S_TEXT/UTF8
Codec ID/Info : UTF-8 Plain Text
Duration : 42 min 8 s
Bit rate : 85 b/s
Count of elements : 970
Stream size : 26.4 KiB (0%)
Title : English
Language : English
Default : No
Forced : No





Manifest S02E01


Manifest S02E01


Manifest S02E01


Manifest S02E01


Manifest S02E01

All episodes