Index
# A B C D E F G H I J K L M N O P Q R S T U V W Y Z
Tags
Language
Tags

Featured TV Shows


Manifest S02E04

Posted By:
1080p (FullHD) / WEBRip IMDb
Manifest S02E04

Manifest S02E04
WEBRip | MKV | 1920x1080 | English | H265 @ 3354 kbps | E-AC-3 @ 640 kbps | 42 min 56 s | 1.20 GiB
Subtitles: English
Genre: Drama, Mystery


After landing from a turbulent but routine flight, the crew and passengers of Montego Air Flight 828 discover five years have passed in what seemed like a few hours. As their new realities become clear, a deeper mystery unfolds and some of the returned passengers soon realize they may be meant for something greater than they ever thought possible.

a85cba065a7b444980a7bb8b8d1858cf.mkv (1.2 GB)



General
Unique ID : 196821465134273922835040031027760102973 (0x94126F7271A915388FEC8DBB1E0E7E3D)
Complete name : ./a85cba065a7b444980a7bb8b8d1858cf.mkv
Format : Matroska
Format version : Version 2
File size : 1.20 GiB
Duration : 42 min 56 s
Overall bit rate : 4 008 kb/s
Movie name : Manifest.S02E04.WEBRip.1080p.DD+5.1.H265-d3g
Encoded date : UTC 2020-05-01 20:47:14
Writing application : DVDFab 10.0.9.2
Writing library : libebml v1.3.4 + libmatroska v1.4.5

Video
ID : 1
Format : HEVC
Format/Info : High Efficiency Video Coding
Format profile : Main 10@L4@Main
Codec ID : V_MPEGH/ISO/HEVC
Duration : 42 min 55 s
Bit rate : 3 354 kb/s
Width : 1 920 pixels
Height : 1 080 pixels
Display aspect ratio : 16:9
Frame rate mode : Constant
Frame rate : 23.976 (24000/1001) FPS
Color space : YUV
Chroma subsampling : 4:2:0
Bit depth : 10 bits
Bits/(Pixel*Frame) : 0.067
Stream size : 1.01 GiB (84%)
Default : Yes
Forced : No
Color range : Limited
Color primaries : BT.709
Transfer characteristics : BT.709
Matrix coefficients : BT.709

Audio
ID : 2
Format : E-AC-3
Format/Info : Enhanced Audio Coding 3
Format settings, Endianness : Big
Codec ID : A_EAC3
Duration : 42 min 56 s
Bit rate mode : Constant
Bit rate : 640 kb/s
Channel(s) : 6 channels
Channel positions : Front: L C R, Side: L R, LFE
Sampling rate : 48.0 kHz
Frame rate : 187.500 FPS (256 SPF)
Compression mode : Lossy
Stream size : 197 MiB (16%)
Language : English
Service kind : Complete Main
Default : Yes
Forced : No

Text
ID : 3
Format : VobSub
Codec ID : S_VOBSUB
Codec ID/Info : Picture based subtitle format used on DVDs
Duration : 42 min 12 s
Bit rate : 12.5 kb/s
Count of elements : 750
Stream size : 3.78 MiB (0%)
Language : English
Default : No
Forced : No





Manifest S02E04


Manifest S02E04


Manifest S02E04


Manifest S02E04


Manifest S02E04

All episodes