Index
# A B C D E F G H I J K L M N O P Q R S T U V W Y Z
Tags
Language
Tags

Featured TV Shows


Manifest S02E09

Posted By: Tavaz
1080p (FullHD) / WEBRip IMDb
Manifest S02E09

Manifest S02E09
WEBRip | MKV | 1920x1080 | English | H265 @ 3367 kbps | E-AC-3 @ 640 kbps | 42 min 53 s | 1.21 GiB
Subtitles: English
Genre: Drama, Mystery


After landing from a turbulent but routine flight, the crew and passengers of Montego Air Flight 828 discover five years have passed in what seemed like a few hours. As their new realities become clear, a deeper mystery unfolds and some of the returned passengers soon realize they may be meant for something greater than they ever thought possible.

f160529324294191a86f22d5eae8f4af.mkv (1.2 GB)



General
Unique ID : 235255485999521537627919954969236460254 (0xB0FC8EFA4CF8739DB74040F9D73DD2DE)
Complete name : ./f160529324294191a86f22d5eae8f4af.mkv
Format : Matroska
Format version : Version 2
File size : 1.21 GiB
Duration : 42 min 53 s
Overall bit rate : 4 024 kb/s
Movie name : Manifest.S02E09.WEBRip.1080p.DD+5.1.H265-d3g
Encoded date : UTC 2020-05-01 21:09:27
Writing application : DVDFab 10.0.9.2
Writing library : libebml v1.3.4 + libmatroska v1.4.5

Video
ID : 1
Format : HEVC
Format/Info : High Efficiency Video Coding
Format profile : Main 10@L4@Main
Codec ID : V_MPEGH/ISO/HEVC
Duration : 42 min 52 s
Bit rate : 3 367 kb/s
Width : 1 920 pixels
Height : 1 080 pixels
Display aspect ratio : 16:9
Frame rate mode : Constant
Frame rate : 23.976 (24000/1001) FPS
Color space : YUV
Chroma subsampling : 4:2:0
Bit depth : 10 bits
Bits/(Pixel*Frame) : 0.068
Stream size : 1.01 GiB (84%)
Default : Yes
Forced : No
Color range : Limited
Color primaries : BT.709
Transfer characteristics : BT.709
Matrix coefficients : BT.709

Audio
ID : 2
Format : E-AC-3
Format/Info : Enhanced Audio Coding 3
Format settings, Endianness : Big
Codec ID : A_EAC3
Duration : 42 min 53 s
Bit rate mode : Constant
Bit rate : 640 kb/s
Channel(s) : 6 channels
Channel positions : Front: L C R, Side: L R, LFE
Sampling rate : 48.0 kHz
Frame rate : 187.500 FPS (256 SPF)
Compression mode : Lossy
Stream size : 196 MiB (16%)
Language : English
Service kind : Complete Main
Default : Yes
Forced : No

Text
ID : 3
Format : VobSub
Codec ID : S_VOBSUB
Codec ID/Info : Picture based subtitle format used on DVDs
Duration : 42 min 8 s
Bit rate : 15.8 kb/s
Count of elements : 839
Stream size : 4.75 MiB (0%)
Language : English
Default : No
Forced : No





Manifest S02E09


Manifest S02E09


Manifest S02E09


Manifest S02E09


Manifest S02E09

All episodes