Index
# A B C D E F G H I J K L M N O P Q R S T U V W Y Z
Tags
Language
Tags

Featured TV Shows


Manifest S03E10

Posted By: Tavaz
1080p (FullHD) / WEBRip IMDb
Manifest S03E10

Manifest S03E10
WEBRip | MKV | 1920x1080 | English | H264 @ 5652 kbps | E-AC-3 @ 256 kbps | 43 min 5 s | 1.81 GiB
Subtitles: English
Genre: Drama, Mystery


After landing from a turbulent but routine flight, the crew and passengers of Montego Air Flight 828 discover five years have passed in what seemed like a few hours. As their new realities become clear, a deeper mystery unfolds and some of the returned passengers soon realize they may be meant for something greater than they ever thought possible.

4145a9eff26d4aa3836163aece9f045a.mkv (1.8 GB)



General
Unique ID : 25386235789616632238000014169247729145 (0x1319360F1F56AE17EB4B739572F245F9)
Complete name : ./4145a9eff26d4aa3836163aece9f045a.mkv
Format : Matroska
Format version : Version 4 / Version 2
File size : 1.81 GiB
Duration : 43 min 5 s
Overall bit rate : 6 028 kb/s
Writing application : mkvmerge v49.0.0 ('Sick Of Losing Soulmates') 64-bit
Writing library : libebml v1.4.0 + libmatroska v1.6.1

Video
ID : 1
Format : AVC
Format/Info : Advanced Video Codec
Format profile : High@L4
Format settings : CABAC / 4 Ref Frames
Format settings, CABAC : Yes
Format settings, RefFrames : 4 frames
Codec ID : V_MPEG4/ISO/AVC
Duration : 43 min 5 s
Bit rate : 5 652 kb/s
Width : 1 920 pixels
Height : 1 080 pixels
Display aspect ratio : 16:9
Frame rate mode : Constant
Frame rate : 23.976 (24000/1001) FPS
Color space : YUV
Chroma subsampling : 4:2:0
Bit depth : 8 bits
Scan type : Progressive
Bits/(Pixel*Frame) : 0.114
Stream size : 1.70 GiB (94%)
Default : Yes
Forced : No

Audio
ID : 2
Format : E-AC-3
Format/Info : Enhanced Audio Coding 3
Format settings, Endianness : Big
Codec ID : A_EAC3
Duration : 43 min 5 s
Bit rate mode : Constant
Bit rate : 256 kb/s
Channel(s) : 6 channels
Channel positions : Front: L C R, Side: L R, LFE
Sampling rate : 48.0 kHz
Frame rate : 187.500 FPS (256 SPF)
Compression mode : Lossy
Stream size : 78.9 MiB (4%)
Language : English
Service kind : Complete Main
Default : Yes
Forced : No

Text
ID : 3
Format : UTF-8
Codec ID : S_TEXT/UTF8
Codec ID/Info : UTF-8 Plain Text
Title : English
Language : English
Default : No
Forced : No





Manifest S03E10


Manifest S03E10


Manifest S03E10


Manifest S03E10


Manifest S03E10

All episodes