Index
# A B C D E F G H I J K L M N O P Q R S T U V W Y Z
Tags
Language
Tags

Featured TV Shows


Manifest S03E12

Posted By: Tavaz
1080p (FullHD) / WEBRip IMDb
Manifest S03E12

Manifest S03E12
WEBRip | MKV | 1920x1080 | English | H264 @ 9241 kbps | E-AC-3 @ 640 kbps | 42 min 58 s | 2.97 GiB
Subtitles: English
Genre: Drama, Mystery


After landing from a turbulent but routine flight, the crew and passengers of Montego Air Flight 828 discover five years have passed in what seemed like a few hours. As their new realities become clear, a deeper mystery unfolds and some of the returned passengers soon realize they may be meant for something greater than they ever thought possible.

d246fa8cfb4b4aa29a7d8dfea8f169b2.mkv (3.0 GB)



General
Unique ID : 56559553069632981891662034056137799842 (0x2A8CF943BC087C988735CF675D79F8A2)
Complete name : ./d246fa8cfb4b4aa29a7d8dfea8f169b2.mkv
Format : Matroska
Format version : Version 4 / Version 2
File size : 2.97 GiB
Duration : 42 min 58 s
Overall bit rate : 9 884 kb/s
Encoded date : UTC 2021-06-11 04:49:27
Writing application : mkvmerge v57.0.0 ('Till The End') 64-bit
Writing library : libebml v1.4.2 + libmatroska v1.6.4

Video
ID : 1
Format : AVC
Format/Info : Advanced Video Codec
Format profile : High@L4
Format settings : CABAC / 4 Ref Frames
Format settings, CABAC : Yes
Format settings, RefFrames : 4 frames
Codec ID : V_MPEG4/ISO/AVC
Duration : 42 min 58 s
Bit rate mode : Constant
Bit rate : 9 242 kb/s
Nominal bit rate : 10 000 kb/s
Width : 1 920 pixels
Height : 1 080 pixels
Display aspect ratio : 16:9
Frame rate mode : Constant
Frame rate : 23.976 (24000/1001) FPS
Color space : YUV
Chroma subsampling : 4:2:0
Bit depth : 8 bits
Scan type : Progressive
Bits/(Pixel*Frame) : 0.186
Stream size : 2.77 GiB (94%)
Language : English
Default : Yes
Forced : No
Color range : Limited
Color primaries : BT.709
Transfer characteristics : BT.709
Matrix coefficients : BT.709

Audio
ID : 2
Format : E-AC-3
Format/Info : Enhanced Audio Coding 3
Format settings, Endianness : Big
Codec ID : A_EAC3
Duration : 42 min 58 s
Bit rate mode : Constant
Bit rate : 640 kb/s
Channel(s) : 6 channels
Channel positions : Front: L C R, Side: L R, LFE
Sampling rate : 48.0 kHz
Frame rate : 187.500 FPS (256 SPF)
Compression mode : Lossy
Stream size : 197 MiB (6%)
Language : English
Service kind : Complete Main
Default : Yes
Forced : No

Text
ID : 3
Format : UTF-8
Codec ID : S_TEXT/UTF8
Codec ID/Info : UTF-8 Plain Text
Duration : 42 min 49 s
Bit rate : 94 b/s
Count of elements : 993
Stream size : 29.5 KiB (0%)
Title : English
Language : English
Default : No
Forced : No





Manifest S03E12


Manifest S03E12


Manifest S03E12


Manifest S03E12


Manifest S03E12

All episodes