Featured TV Shows


Mankind: The Story of All of Us S01E11

Posted By: Tavaz
Mankind: The Story of All of Us S01E11

Mankind: The Story of All of Us S01E11
MKV | 1920x1080 | English | H265 @ 6667 kbps | AC-3 @ 192 kbps | 43 min 54 s | 2.15 GiB
Genre: Documentary

Mankind The Story of All of Us is an epic 12-hour television event about the greatest adventure of all time—the history of the human race.

It takes 10 billion years for the ideal planet to form and 3 billion more for the right conditions to emerge before it finally happens: mankind begins. From there unfolds a fast-paced story told here through key turning points—stepping stones in our journey from hunter-gatherer to global citizen. It’s a tale of connections—why some ideas take hold and spread around the globe, and how the lives of people in one part of the world are shaped by events in another.

Mankind.the.Story.of.All.of.Us.S01E11.Speed.1080p.HDTV.mkv (2.1 GB)



General
Unique ID : 118622709974462000342339903544318039198 (0x593DE725EC6F9F9075E6D27D1E91149E)
Complete name : ./Mankind.the.Story.of.All.of.Us.S01E11.Speed.1080p.HDTV.mkv
Format : Matroska
Format version : Version 4 / Version 2
File size : 2.15 GiB
Duration : 43 min 54 s
Overall bit rate : 6 999 kb/s
Writing application : Lavf58.12.100
Writing library : Lavf58.12.100
ErrorDetectionType : Per level 1

Video
ID : 1
Format : HEVC
Format/Info : High Efficiency Video Coding
Format profile : Main@L5.1@Main
Codec ID : V_MPEGH/ISO/HEVC
Duration : 43 min 54 s
Bit rate : 6 668 kb/s
Width : 1 920 pixels
Height : 1 080 pixels
Display aspect ratio : 16:9
Frame rate mode : Constant
Frame rate : 25.000 FPS
Color space : YUV
Chroma subsampling : 4:2:0
Bit depth : 8 bits
Bits/(Pixel*Frame) : 0.129
Stream size : 2.05 GiB (95%)
Writing library : Lavc58.18.100 hevc_videotoolbox
Default : Yes
Forced : No
Color range : Limited

Audio
ID : 2
Format : AC-3
Format/Info : Audio Coding 3
Format settings, Endianness : Big
Codec ID : A_AC3
Duration : 43 min 54 s
Bit rate mode : Constant
Bit rate : 192 kb/s
Channel(s) : 2 channels
Channel positions : Front: L R
Sampling rate : 48.0 kHz
Frame rate : 31.250 FPS (1536 SPF)
Bit depth : 16 bits
Compression mode : Lossy
Delay relative to video : -5 ms
Stream size : 60.3 MiB (3%)
Writing library : Lavc58.18.100 ac3
Language : English
Service kind : Complete Main
Default : No
Forced : No





Mankind: The Story of All of Us S01E11


Mankind: The Story of All of Us S01E11


Mankind: The Story of All of Us S01E11


Mankind: The Story of All of Us S01E11


Mankind: The Story of All of Us S01E11

All episodes