Featured TV Shows


Mare of Easttown S01E03

Posted By: Tavaz
720p (HD) / WEBRip IMDb
Mare of Easttown S01E03

Mare of Easttown S01E03
WEBRip | MKV | 1280x720 | English | H264 @ 3015 kbps | E-AC-3 @ 640 kbps | 1 h 1 min | 1.60 GiB
Subtitles: English
Genre: Drama, Mystery, Crime


A detective in a small Pennsylvania town investigates a local murder while trying to keep her life from falling apart.

417664d90b834a08a037361a65b29d26.mkv (1.6 GB)



General
Unique ID : 54417731991226022754758738586702415794 (0x28F079551948D4F933342AFAA20F87B2)
Complete name : ./417664d90b834a08a037361a65b29d26.mkv
Format : Matroska
Format version : Version 4 / Version 2
File size : 1.60 GiB
Duration : 1 h 1 min
Overall bit rate : 3 730 kb/s
Writing application : mkvmerge v49.0.0 ('Sick Of Losing Soulmates') 64-bit
Writing library : libebml v1.4.0 + libmatroska v1.6.1

Video
ID : 1
Format : AVC
Format/Info : Advanced Video Codec
Format profile : High@L3.1
Format settings : CABAC / 4 Ref Frames
Format settings, CABAC : Yes
Format settings, RefFrames : 4 frames
Codec ID : V_MPEG4/ISO/AVC
Duration : 1 h 1 min
Bit rate mode : Constant
Bit rate : 3 015 kb/s
Nominal bit rate : 6 000 kb/s
Width : 1 280 pixels
Height : 720 pixels
Display aspect ratio : 16:9
Frame rate mode : Constant
Frame rate : 23.976 (24000/1001) FPS
Color space : YUV
Chroma subsampling : 4:2:0
Bit depth : 8 bits
Scan type : Progressive
Bits/(Pixel*Frame) : 0.136
Stream size : 1.29 GiB (81%)
Default : Yes
Forced : No
Color range : Limited
Color primaries : BT.709
Transfer characteristics : BT.709
Matrix coefficients : BT.709

Audio
ID : 2
Format : E-AC-3
Format/Info : Enhanced Audio Coding 3
Format settings, Endianness : Big
Codec ID : A_EAC3
Duration : 1 h 1 min
Bit rate mode : Constant
Bit rate : 640 kb/s
Channel(s) : 6 channels
Channel positions : Front: L C R, Side: L R, LFE
Sampling rate : 48.0 kHz
Frame rate : 187.500 FPS (256 SPF)
Compression mode : Lossy
Delay relative to video : 8 ms
Stream size : 281 MiB (17%)
Language : English
Service kind : Complete Main
Default : Yes
Forced : No

Text
ID : 3
Format : UTF-8
Codec ID : S_TEXT/UTF8
Codec ID/Info : UTF-8 Plain Text
Language : English
Default : No
Forced : No





Mare of Easttown S01E03


Mare of Easttown S01E03


Mare of Easttown S01E03


Mare of Easttown S01E03


Mare of Easttown S01E03

All episodes